Browse Collections Artists Sources   Search Dates

Add Show    List Management    Help


Grateful Dead 10/16/89
Meadowlands Arena, East Rutherford, NJ
Comments Add Comment    Source Collectors    Add to Collection    Add to Want List    History
Source # 142543 Other Sources
Entered by Matt Vernon
Checksums ffp , flac-md5
Disc Counts 0 / 0
Media Size
Date Circulated
Date Added
07/06/2018
07/06/2018
Source Summary flac16/48kHz; Source Info: Ted Mattes' Master (FOB)Audience Dat; Schoeps CMC4/MK4 mics @ 110 degrees, ORTF, Schoeps t-bar, hand held, chin high > Monster Cable Interlinks > Oade capacitor P/S > Panasonic SV-250 (16-bit/48k); Transfer Info: Master Dat (Sony PCM-R500)> Tascam DA-3000 (16-bit/48k) > .wav(16-bit/48k)> Adobe Audition 3.0 > TLH 1648 
  Archive
Source Information - Download Text | Download Zip
Grateful Dead
Meadowlands Arena
East Rutherford, NJ
Monday October 16th, 1989

Source Info:
Ted Mattes' Master (FOB)Audience Dat; Schoeps CMC4/MK4 mics @ 110 degrees, ORTF, Schoeps t-bar, hand held, chin high > Monster Cable Interlinks > Oade capacitor P/S > Panasonic SV-250 (16-bit/48k)

Transfer Info:
Master Dat (Sony PCM-R500)> Tascam DA-3000 (16-bit/48k) > .wav(16-bit/48k)> Adobe Audition 3.0 > TLH 1648



Notes:
- Thanks to Ted Mattes for the master Dat recording
- Thanks to Charlie Miller for the transfer and coordinating this effort
- Bob Weir's 42nd Birthday

Mastered by Scott Clugston
July 3, 2018

Set One:
s1t01 - Crowd
s1t02 - Picasso Moon >
s1t03 - Mississippi Half-Step Uptown Toodeloo
s1t04 - Feel Like A Stranger
s1t05 - Never Trust A Woman
s1t06 - Built To Last
s1t07 - Stuck Inside Of Mobile With The Memphis Blues Again
s1t08 - Let It Grow >
s1t09 - Deal

Set Two:
s2t01 - Crowd
s2t02 - Dark Star >
s2t03 - Playin' In The Band >
s2t04 - Uncle John's Band >
s2t05 - Playin' Jam >
s2t06 - Drums >
s2t07 - Space >
s2t08 - I Will Take You Home >
s2t09 - I Need A Miracle >
s2t10 - Dark Star >
s2t11 - Attics of My Life >
s2t12 - Playin' In The Band Reprise
s2t13 - Encore Break
s2t14 - And We Bid You Good Night


    length     expanded size    cdr  WAVE problems  fmt   ratio  filename
     2:27.147      28252204 B   cxx   --   ---xx   flac  0.4597  gd89-10-16 s1t01 Crowd.flac
     6:49.413      78607404 B   cxx   --   ---xx   flac  0.5406  gd89-10-16 s1t02 Picasso Moon.flac
     6:43.187      77411884 B   cxx   --   ---xx   flac  0.5224  gd89-10-16 s1t03 Mississippi Half-Step Uptown Toodeloo.flac
     7:34.653      87293484 B   cxx   --   ---xx   flac  0.5330  gd89-10-16 s1t04 Feel Like A Stranger.flac
     9:18.213     107177004 B   cxx   --   ---xx   flac  0.4992  gd89-10-16 s1t05 Never Trust A Woman.flac
     5:28.787      63127084 B   cxx   --   ---xx   flac  0.5188  gd89-10-16 s1t06 Built To Last.flac
    11:26.507     131809324 B   cxx   --   ---xx   flac  0.5147  gd89-10-16 s1t07 Stuck Inside Of Mobile With The Memphis Blues Again.flac
    11:59.867     138214444 B   cxx   --   ---xx   flac  0.5330  gd89-10-16 s1t08 Let It Grow.flac
     8:34.080      98703404 B   cxx   --   ---xx   flac  0.5546  gd89-10-16 s1t09 Deal.flac
     1:04.787      12439084 B   cxx   --   ---xx   flac  0.3524  gd89-10-16 s2t01 Crowd.flac
    11:26.000     131712044 B   cxx   --   ---xx   flac  0.5238  gd89-10-16 s2t02 Dark Star.flac
     8:11.267      94323244 B   cxx   --   ---xx   flac  0.5249  gd89-10-16 s2t03 Playin' In The Band.flac
     8:59.973     103674924 B   cxx   --   ---xx   flac  0.5338  gd89-10-16 s2t04 Uncle John's Band.flac
     9:49.293     113144364 B   cxx   --   ---xx   flac  0.4855  gd89-10-16 s2t05 Playin' Jam.flac
     8:22.400      96460844 B   cxx   --   ---xx   flac  0.4062  gd89-10-16 s2t06 Drums.flac
     3:46.293      43448364 B   cxx   --   ---xx   flac  0.4247  gd89-10-16 s2t07 Space.flac
     4:41.027      53957164 B   cxx   --   ---xx   flac  0.4104  gd89-10-16 s2t08 I Will Take You Home.flac
     3:56.667      45440044 B   cxx   --   ---xx   flac  0.5304  gd89-10-16 s2t09 I Need A Miracle.flac
     5:35.827      64478764 B   cxx   --   ---xx   flac  0.4933  gd89-10-16 s2t10 Dark Star.flac
     4:45.667      54848044 B   cxx   --   ---xx   flac  0.4592  gd89-10-16 s2t11 Attics Of My Life.flac
     3:19.800      38361644 B   cxx   --   ---xx   flac  0.5321  gd89-10-16 s2t12 Playin' In The Band Reprise.flac
     1:45.787      20311084 B   cxx   --   ---xx   flac  0.5383  gd89-10-16 s2t13 Encore Break.flac
     3:34.363      41157672 B   cxx   --   ---xx   flac  0.5124  gd89-10-16 s2t14 And We Bid You Good Night.flac
   149:41.003    1724353520 B                            0.5054  (23 files)


Show Checksums
ffp
gd89-10-16 s1t01 Crowd.flac:e95b5d7472a6cfe279a44f4ee8d7eb3d
gd89-10-16 s1t02 Picasso Moon.flac:e121a379ed0018c25a18d7ed730f0dda
gd89-10-16 s1t03 Mississippi Half-Step Uptown Toodeloo.flac:46226926008138e42d97b412d2640445
gd89-10-16 s1t04 Feel Like A Stranger.flac:d73b56fe83de9250b90d79dcfa8e10b0
gd89-10-16 s1t05 Never Trust A Woman.flac:8e15818ccc7c3fc51f9cb80328386c3b
gd89-10-16 s1t06 Built To Last.flac:b7f8da48d6524260e64b1caac04e3077
gd89-10-16 s1t07 Stuck Inside Of Mobile With The Memphis Blues Again.flac:6df8a48ffda7d16fe8bb61d1f38ee2a1
gd89-10-16 s1t08 Let It Grow.flac:c7b5d0509f884ac6df37b34452a5cb01
gd89-10-16 s1t09 Deal.flac:f7e3422d5f6c94cb36f3d494f55aa604
gd89-10-16 s2t01 Crowd.flac:34bdce3b196df9a47ed4bdc6ee912746
gd89-10-16 s2t02 Dark Star.flac:2034d6b0b83c9deeba000f81e41920a4
gd89-10-16 s2t03 Playin' In The Band.flac:75bbfffee56d522f397310a6bd2818a6
gd89-10-16 s2t04 Uncle John's Band.flac:66cad5b1fffea6337792615cd3da921b
gd89-10-16 s2t05 Playin' Jam.flac:04c622a2a98813f416c4607a8dc89a43
gd89-10-16 s2t06 Drums.flac:a925efb443334cbe6712b0b101161f83
gd89-10-16 s2t07 Space.flac:af363937a6a3ba80e535bd928e1b60a6
gd89-10-16 s2t08 I Will Take You Home.flac:f78ffe7bbdd9e1edb6d914b3df7f919d
gd89-10-16 s2t09 I Need A Miracle.flac:4e182a089246bee9aeea91f32edcc1cb
gd89-10-16 s2t10 Dark Star.flac:be30fcc8d40fe78902151dac5b024e51
gd89-10-16 s2t11 Attics Of My Life.flac:6fa5c81cf3f4a000d8e14ca1d3475e6b
gd89-10-16 s2t12 Playin' In The Band Reprise.flac:af91ea90f7cba8c1245172058f315a43
gd89-10-16 s2t13 Encore Break.flac:7aa53775c4eb2b4abe7e403281291649
gd89-10-16 s2t14 And We Bid You Good Night.flac:9624fb7ac856a44fb6bec2cdd8c68e39
flac-md5
4d9737260db28b09060771cb503e526e *gd89-10-16 s1t01 Crowd.flac
6a8860d35d9c382f4ac9f7c3755b19c8 *gd89-10-16 s1t02 Picasso Moon.flac
3cbc6946c38cbc7a2142505ff242402c *gd89-10-16 s1t03 Mississippi Half-Step Uptown Toodeloo.flac
e0272d11f559eff07b3c43c952cb0ee1 *gd89-10-16 s1t04 Feel Like A Stranger.flac
438f060c78ea83c376d051dcd8d8ab19 *gd89-10-16 s1t05 Never Trust A Woman.flac
a8aab90a3d6aab3559ec16a3dafe5282 *gd89-10-16 s1t06 Built To Last.flac
1cc9d9b2ac5b156bb6fdd6ac10743728 *gd89-10-16 s1t07 Stuck Inside Of Mobile With The Memphis Blues Again.flac
b5f78ed3e1f492006d8d105bee585a28 *gd89-10-16 s1t08 Let It Grow.flac
0df62803e6e7831508709ae6ad3617c9 *gd89-10-16 s1t09 Deal.flac
dbc2dbc09faab32a09e35e135f454325 *gd89-10-16 s2t01 Crowd.flac
a89c0c6eb7d4de1281489c02497f72da *gd89-10-16 s2t02 Dark Star.flac
c4742668c5685e607658c961c2597654 *gd89-10-16 s2t03 Playin' In The Band.flac
5cf21551d17ecae6451863eae5571e23 *gd89-10-16 s2t04 Uncle John's Band.flac
fa6c08388c13fe51d65594b398b77c22 *gd89-10-16 s2t05 Playin' Jam.flac
9899b61276ddb8970989d640580c866f *gd89-10-16 s2t06 Drums.flac
2c5b34326e3995ea29404a350d1ebe7a *gd89-10-16 s2t07 Space.flac
ab3341bab8a7fb74ab965070419fbbba *gd89-10-16 s2t08 I Will Take You Home.flac
a4caf1695f1bc7a8c805bb732ec6e3f0 *gd89-10-16 s2t09 I Need A Miracle.flac
f52cb20624c15b130858a54199000c6c *gd89-10-16 s2t10 Dark Star.flac
5a55b580d07932a9163fb50b8437990d *gd89-10-16 s2t11 Attics Of My Life.flac
a02af039cc1f5bc9008ee0b8ef7ee2ab *gd89-10-16 s2t12 Playin' In The Band Reprise.flac
642f951c4b7743038f7d13c7358edcd6 *gd89-10-16 s2t13 Encore Break.flac
826a25ea821b2221c1a575debbb4f439 *gd89-10-16 s2t14 And We Bid You Good Night.flac

Comments
Add Comment
Other Sources (comments)
source update: DSBD> DAT>... (9) unknown audience recording... (0) flac16; Set 2 Only -... (1) flac16; matrix of... (0) flac16/48kHz;... (0) flac16; Source:... (0) flac16; Taper: M.... (0) flac24; Master... (0) flac16; Master... (0) flac24; Recording... (0) flac16; Recording... (0)
Date User Comment