Browse Collections Artists Sources   Search Dates

Add Show    List Management    Help


Grateful Dead 10/20/89
The Spectrum, Philadelphia, PA
Comments Add Comment    Source Collectors    Add to Collection    Add to Want List    History
Source # 142563 Other Sources
Entered by Matt Vernon
Checksums ffp , flac-md5
Disc Counts 0 / 0
Media Size
Date Circulated
Date Added
07/07/2018
07/07/2018
Source Summary flac16/48kHz; Source Info: Ted Mattes' Master (FOB)Audience Dat; Schoeps CMC4/MK4 mics @ 110 degrees, ORTF, Schoeps t-bar, hand held, chin high > Monster Cable Interlinks > Oade capacitor P/S > Panasonic SV-250 (16-bit/48k); Transfer Info: Master Dat (Sony PCM-R500)> Tascam DA-3000 (16-bit/48k) > .wav(16-bit/48k)> Adobe Audition 3.0 > TLH 1648 
  Archive
Source Information - Download Text | Download Zip
Grateful Dead
The Spectrum
Philadelphia, PA
Friday October 20th, 1989

Source Info:
Ted Mattes' Master (FOB)Audience Dat; Schoeps CMC4/MK4 mics @ 110 degrees, ORTF, Schoeps t-bar, hand held, chin high > Monster Cable Interlinks > Oade capacitor P/S > Panasonic SV-250 (16-bit/48k)

Transfer Info:
Master Dat (Sony PCM-R500)> Tascam DA-3000 (16-bit/48k) > .wav(16-bit/48k)> Adobe Audition 3.0 > TLH 1648



Notes:
- Thanks to Ted Mattes for the master Dat recording
- Thanks to Charlie Miller for the transfer and coordinating this effort

Mastered by Scott Clugston
July 3, 2018

Set One:
s1t01 - Crowd
s1t02 - Touch Of Grey >
d1t03 - Greatest Story Ever Told
d1t04 - Candyman
d1t05 - Picasso Moon
d1t06 - Just A Little Light
d1t07 - Tennessee Jed
d1t08 - Stuck Inside Of Mobile With The Memphis Blues Again
d1t09 - Stagger Lee
d1t10 - Promised Land >
d1t11 - California Earthquake

Set Two:
s2t01 - Crowd
s2t02 - Hey Pocky Way >
s2t03 - Scarlet Begonias >
s2t04 - Fire On The Mountain >
s2t05 - Truckin' >
s2t06 - Other One Jam >
s2t07 - Drums >
s2t08 - Space >
s2t09 - I Will Take You Home >
s2t10 - The Other One >
s2t11 - Wharf Rat >
s2t12 - Sugar Magnolia
s2t13 - Encore Break
s2t14 - Brokedown Palace


    length     expanded size    cdr  WAVE problems  fmt   ratio  filename
     3:43.947      42997804 B   cxx   --   ---xx   flac  0.5377  gd89-10-20 s1t01 Crowd.flac
     6:13.427      71697964 B   cxx   --   ---xx   flac  0.6518  gd89-10-20 s1t02 Touch Of Grey.flac
     4:43.707      54471724 B   cxx   --   ---xx   flac  0.6384  gd89-10-20 s1t03 Greatest Story Ever Told.flac
     9:45.973     112506924 B   cxx   --   ---xx   flac  0.5730  gd89-10-20 s1t04 Candyman.flac
     9:59.480     115100204 B   cxx   --   ---xx   flac  0.6018  gd89-10-20 s1t05 Picasso Moon.flac
     5:47.573      66734124 B   cxx   --   ---xx   flac  0.6232  gd89-10-20 s1t06 Just A Little Light.flac
     8:45.880     100969004 B   cxx   --   ---xx   flac  0.6272  gd89-10-20 s1t07 Tennessee Jed.flac
    11:13.627     129336364 B   cxx   --   ---xx   flac  0.6123  gd89-10-20 s1t08 Stuck Inside Of Mobile With The Memphis Blues Again.flac
     6:51.120      78935084 B   cxx   --   ---xx   flac  0.6220  gd89-10-20 s1t09 Stagger Lee.flac
     4:23.813      50652204 B   cxx   --   ---xx   flac  0.6582  gd89-10-20 s1t10 Promised Land.flac
     5:54.587      68080684 B   cxx   --   ---xx   flac  0.6034  gd89-10-20 s1t11 California Earthquake.flac
     4:01.587      46384684 B   cxx   --   ---xx   flac  0.4560  gd89-10-20 s2t01 Crowd.flac
     6:46.053      77962284 B   cxx   --   ---xx   flac  0.6606  gd89-10-20 s2t02 Hey Pocky Way.flac
    10:11.507     117409324 B   cxx   --   ---xx   flac  0.6408  gd89-10-20 s2t03 Scarlet Begonias.flac
    13:37.680     156994604 B   cxx   --   ---xx   flac  0.6236  gd89-10-20 s2t04 Fire On The Mountain.flac
     6:37.613      76341804 B   cxx   --   ---xx   flac  0.6452  gd89-10-20 s2t05 Truckin'.flac
    14:33.373     167687724 B   cxx   --   ---xx   flac  0.5977  gd89-10-20 s2t06 Other One Jam.flac
    11:03.973     127482924 B   cxx   --   ---xx   flac  0.5278  gd89-10-20 s2t07 Drums.flac
    10:20.667     119168044 B   cxx   --   ---xx   flac  0.5491  gd89-10-20 s2t08 Space.flac
     5:19.813      61404204 B   cxx   --   ---xx   flac  0.5272  gd89-10-20 s2t09 I Will Take You Home.flac
    10:51.067     125004844 B   cxx   --   ---xx   flac  0.6237  gd89-10-20 s2t10 The Other One.flac
    10:16.307     118330924 B   cxx   --   ---xx   flac  0.5908  gd89-10-20 s2t11 Wharf Rat.flac
     9:55.373     114311724 B   cxx   --   ---xx   flac  0.6544  gd89-10-20 s2t12 Sugar Magnolia.flac
     0:52.947      10165804 B   cxx   --   ---xx   flac  0.4862  gd89-10-20 s2t13 Encore Break.flac
     5:14.686      60419748 B   cxx   --   ---xx   flac  0.5693  gd89-10-20 s2t14 Brokedown Palace.flac
   197:05.779    2270550724 B                            0.6027  (25 files)


Show Checksums
ffp
gd89-10-20 s1t01 Crowd.flac:670ce13a8d02c24239e79d7672ab33f1
gd89-10-20 s1t02 Touch Of Grey.flac:ed4f19f2473a2648df646450b7faa73e
gd89-10-20 s1t03 Greatest Story Ever Told.flac:13d66b01b54b7ff75de54d73de722bc6
gd89-10-20 s1t04 Candyman.flac:c04bdc89868e5f741335d98a147bbfd2
gd89-10-20 s1t05 Picasso Moon.flac:b5950c0ea7dc70018efeeb07ae37ba5f
gd89-10-20 s1t06 Just A Little Light.flac:b86a364a999984cf508aba93cb897a19
gd89-10-20 s1t07 Tennessee Jed.flac:e2b333436927124885cdc2769386c59a
gd89-10-20 s1t08 Stuck Inside Of Mobile With The Memphis Blues Again.flac:aaf7f9cdafcb000ba8f544f266c27b5e
gd89-10-20 s1t09 Stagger Lee.flac:bfdd3ae4a1e7b4b855986adc2512d9cf
gd89-10-20 s1t10 Promised Land.flac:b4ab56463d3ef9a9050afaf7e5b53a37
gd89-10-20 s1t11 California Earthquake.flac:64555d8b1970806ec76980890391b862
gd89-10-20 s2t01 Crowd.flac:3a6f16d579a6439d212c42f88a3c1858
gd89-10-20 s2t02 Hey Pocky Way.flac:e15dc43860d67844fab31807a84b9ae7
gd89-10-20 s2t03 Scarlet Begonias.flac:20b45db0a29b58e152a88faf6123a020
gd89-10-20 s2t04 Fire On The Mountain.flac:299b3da743b116f9e742c0d62586b4da
gd89-10-20 s2t05 Truckin'.flac:48153e24005ce0fc48b6ece026eedcc8
gd89-10-20 s2t06 Other One Jam.flac:70f17332af86f45814cb49c5c15df531
gd89-10-20 s2t07 Drums.flac:eb6cfa17b3b51da8b796b296ab5709c6
gd89-10-20 s2t08 Space.flac:3cc311545d6a50b23582f63a1cddaafc
gd89-10-20 s2t09 I Will Take You Home.flac:2074329e78dff7df22c203afa40c8789
gd89-10-20 s2t10 The Other One.flac:1f73e198453f8808b3771f4af6047b42
gd89-10-20 s2t11 Wharf Rat.flac:c6ae5b0239f750bc665640551778af6c
gd89-10-20 s2t12 Sugar Magnolia.flac:3e88604d26988d3bebf31775d9a84b3d
gd89-10-20 s2t13 Encore Break.flac:f0370b3fa58296b137477cfd1254450c
gd89-10-20 s2t14 Brokedown Palace.flac:172821ffba02fed69a7243070f8b17d6
flac-md5
6ab8ecfd77d9fd8205c4712af80a8738 *gd89-10-20 s1t01 Crowd.flac
ca54cfaf65dd016e2d3d03348a3a2452 *gd89-10-20 s1t02 Touch Of Grey.flac
0f9d9837168086dc1eb7088d9b1fb4e7 *gd89-10-20 s1t03 Greatest Story Ever Told.flac
1f51bd9405461df5ad4768381760e05f *gd89-10-20 s1t04 Candyman.flac
c1d4c19a31227c5ae6791f1f91d810fb *gd89-10-20 s1t05 Picasso Moon.flac
bf345bfe559e34eb77832fd2353b2c08 *gd89-10-20 s1t06 Just A Little Light.flac
414f53719f8b6e50a05f5af81c9ed8c8 *gd89-10-20 s1t07 Tennessee Jed.flac
e36619aaf63030a63279ba6c998d5d71 *gd89-10-20 s1t08 Stuck Inside Of Mobile With The Memphis Blues Again.flac
610f347eac0e4952053444b849eaed4f *gd89-10-20 s1t09 Stagger Lee.flac
df52bfb9b29eab2789f633ff50a418c6 *gd89-10-20 s1t10 Promised Land.flac
cfa0485623959b2837a49d88058bedae *gd89-10-20 s1t11 California Earthquake.flac
fc7f8c7addc886f57eb768269a54b041 *gd89-10-20 s2t01 Crowd.flac
e68648ea5e280d699cac2d2a1ee4f1a8 *gd89-10-20 s2t02 Hey Pocky Way.flac
dda88e2ce6af3a83c207eb64e5d3c872 *gd89-10-20 s2t03 Scarlet Begonias.flac
35935ac6da4c15f5051f0ccb3abf56b6 *gd89-10-20 s2t04 Fire On The Mountain.flac
06daf97020c64fb16b336832746191c8 *gd89-10-20 s2t05 Truckin'.flac
bcfcb0e602e8e46551184e85be79b5d0 *gd89-10-20 s2t06 Other One Jam.flac
2a642d65ae615dd06448a5cd63064079 *gd89-10-20 s2t07 Drums.flac
f75f5823598a20dbf0a4152da61627ba *gd89-10-20 s2t08 Space.flac
7dfa1946dbd9c7cb6f655038597565fa *gd89-10-20 s2t09 I Will Take You Home.flac
0af302fa8d46fabdd72f3cea832e6baa *gd89-10-20 s2t10 The Other One.flac
3d4e7515a305c0026375cf955cf02a0d *gd89-10-20 s2t11 Wharf Rat.flac
37c840bf331b9ecc1c5f77dd32609894 *gd89-10-20 s2t12 Sugar Magnolia.flac
071705157a49ce2f8302a6379d3299e7 *gd89-10-20 s2t13 Encore Break.flac
3232c42f87de91caed534ea51c12b1d3 *gd89-10-20 s2t14 Brokedown Palace.flac

Comments
Add Comment
Other Sources (comments)
DSBD>C?>DAT>CDR; via eD... (0) Ultra-Matrix Soundboard DAT... (0) Seamless fix of (0) flac16; Recording... (0) Possibly Shure M57s... (2) flac16; Source:... (1) flac16; Matrix by... (0) flac16; SBD Master... (0) flac16; Source:... (0) flac16/48kHz;... (0) flac16; Source:... (0) flac16; MAV (Taped... (0) flac16; Matrix 2... (0) DTS Audio 5.1; SBD... (0)
Date User Comment