Browse Collections Artists Sources   Search Dates

Add Show    List Management    Help


Grateful Dead 10/23/89
Charlotte Coliseum, Charlotte, NC
Comments Add Comment    Source Collectors    Add to Collection    Add to Want List    History
Source # 142577 Other Sources
Entered by Matt Vernon
Checksums ffp , flac-md5
Disc Counts 0 / 0
Media Size
Date Circulated
Date Added
07/08/2018
07/08/2018
Source Summary flac16/48kHz; Source Info: Ted Mattes' Master (FOB)Audience Dat; Schoeps CMC4/MK4 mics @ 110 degrees, ORTF, Schoeps t-bar, hand held, chin high > Monster Cable Interlinks > Oade capacitor P/S > Panasonic SV-250 (16-bit/48k); Transfer Info: Master Dat (Sony PCM-R500)> Tascam DA-3000 (16-bit/48k) > .wav(16-bit/48k)> Adobe Audition 3.0 > TLH 1648 
  Archive
Source Information - Download Text | Download Zip
Grateful Dead
Charlotte Coliseum
Charlotte, NC
Monday October 23rd, 1989

Source Info:
Ted Mattes' Master (FOB)Audience Dat; Schoeps CMC4/MK4 mics @ 110 degrees, ORTF, Schoeps t-bar, hand held, chin high > Monster Cable Interlinks > Oade capacitor P/S > Panasonic SV-250 (16-bit/48k)

Transfer Info:
Master Dat (Sony PCM-R500)> Tascam DA-3000 (16-bit/48k) > .wav(16-bit/48k)> Adobe Audition 3.0 > TLH 1648



Notes:
- Thanks to Ted Mattes for the master Dat recording
- Thanks to Charlie Miller for the transfer and coordinating this effort

Mastered by Scott Clugston
July 4, 2018

Set One:
s1t01 - Crowd
s1t02 - California Earthquake
s1t03 - Feel Like A Stranger
s1t04 - Loser
s1t05 - Walkin' Blues
s1t06 - Bertha >
s1t07 - When I Paint My Masterpiece
s1t08 - Tennessee Jed
s1t09 - Let It Grow

Set Two:
s2t01 - Crowd
s2t02 - Touch Of Grey >
s2t03 - Looks Like Rain
s2t04 - We Can Run >
s2t05 - Crazy Fingers >
s2t06 - Terrapin Station >
s2t07 - Drums >
s2t08 - Space >
s2t09 - I Will Take You Home >
s2t10 - Goin' Down The Road Feeling Bad >
s2t11 - Standing On The Moon >
s2t12 - Turn On Your Lovelight
s2t13 - Encore Break
s2t14 - Attics Of My Life


    length     expanded size    cdr  WAVE problems  fmt   ratio  filename
     3:46.333      43456044 B   cxx   --   ---xx   flac  0.4356  gd89-10-23 s1t01 Crowd.flac
     5:49.920      67184684 B   cxx   --   ---xx   flac  0.4756  gd89-10-23 s1t02 California Earthquake.flac
    10:13.240     117742124 B   cxx   --   ---xx   flac  0.5089  gd89-10-23 s1t03 Feel Like A Stranger.flac
     7:11.107      82772524 B   cxx   --   ---xx   flac  0.5092  gd89-10-23 s1t04 Loser.flac
     8:36.133      99097644 B   cxx   --   ---xx   flac  0.4785  gd89-10-23 s1t05 Walkin' Blues.flac
     6:45.053      77770284 B   cxx   --   ---xx   flac  0.5296  gd89-10-23 s1t06 Bertha.flac
     7:27.573      85934124 B   cxx   --   ---xx   flac  0.4782  gd89-10-23 s1t07 When I Paint My Masterpiece.flac
     8:34.800      98841644 B   cxx   --   ---xx   flac  0.5326  gd89-10-23 s1t08 Tennessee Jed.flac
    13:09.973     151674924 B   cxx   --   ---xx   flac  0.5313  gd89-10-23 s1t09 Let It Grow.flac
     3:02.107      34964524 B   cxx   --   ---xx   flac  0.3874  gd89-10-23 s2t01 Crowd.flac
     6:38.613      76533804 B   cxx   --   ---xx   flac  0.5445  gd89-10-23 s2t02 Touch Of Grey.flac
     9:13.760     106321964 B   cxx   --   ---xx   flac  0.4968  gd89-10-23 s2t03 Looks Like Rain.flac
     6:51.533      79014444 B   cxx   --   ---xx   flac  0.5318  gd89-10-23 s2t04 We Can Run.flac
     8:05.627      93240364 B   cxx   --   ---xx   flac  0.5041  gd89-10-23 s2t05 Crazy Fingers.flac
    15:04.320     173629484 B   cxx   --   ---xx   flac  0.5131  gd89-10-23 s2t06 Terrapin Station.flac
    10:20.787     119191084 B   cxx   --   ---xx   flac  0.4702  gd89-10-23 s2t07 Drums.flac
     7:53.573      90926124 B   cxx   --   ---xx   flac  0.4094  gd89-10-23 s2t08 Space.flac
     5:05.880      58729004 B   cxx   --   ---xx   flac  0.4193  gd89-10-23 s2t09 I Will Take You Home.flac
     7:23.920      85232684 B   cxx   --   ---xx   flac  0.5169  gd89-10-23 s2t10 Goin' Down The Road Feeling Bad.flac
     8:57.400     103180844 B   cxx   --   ---xx   flac  0.4820  gd89-10-23 s2t11 Standing On The Moon.flac
     6:50.027      78725164 B   cxx   --   ---xx   flac  0.5330  gd89-10-23 s2t12 Turn On Your Lovelight.flac
     3:00.600      34675244 B   cxx   --   ---xx   flac  0.5133  gd89-10-23 s2t13 Encore Break.flac
     5:34.289      64183600 B   cxx   --   ---xx   flac  0.4687  gd89-10-23 s2t14 Attics Of My Life.flac
   175:36.569    2023022328 B                            0.4961  (23 files)


Show Checksums
ffp
gd89-10-23 s1t01 Crowd.flac:033c0325cdb807ac6468997dc20da594
gd89-10-23 s1t02 California Earthquake.flac:2bb8951b393686cc6a1c512085f2ba18
gd89-10-23 s1t03 Feel Like A Stranger.flac:7c12b6dc7a3f5415b0eee944043ca49d
gd89-10-23 s1t04 Loser.flac:384e8db6cdbf3cba24cc70bd937f1a07
gd89-10-23 s1t05 Walkin' Blues.flac:11bb80730e586188b8044e80f2a2bdbb
gd89-10-23 s1t06 Bertha.flac:12c68f578d321afd4e190443c460017b
gd89-10-23 s1t07 When I Paint My Masterpiece.flac:e8fb6ad9e473a40e9c250b64b25fda08
gd89-10-23 s1t08 Tennessee Jed.flac:acaea4a65716b17c2abb3a43c026bbca
gd89-10-23 s1t09 Let It Grow.flac:91693c2cc1bfc67688ed5849c642e30e
gd89-10-23 s2t01 Crowd.flac:dc7cbb91ac7670efd0333f406e9bd887
gd89-10-23 s2t02 Touch Of Grey.flac:fb7ca0223fa9e1a1748c0ec4a530c91f
gd89-10-23 s2t03 Looks Like Rain.flac:d7c90e7f70ffee7d2d68da44324e711a
gd89-10-23 s2t04 We Can Run.flac:84547c5208445ce815fa42f5f2e3d061
gd89-10-23 s2t05 Crazy Fingers.flac:bdb2b03468c20eb86f7e39dfdfec2cdf
gd89-10-23 s2t06 Terrapin Station.flac:53e9938164f9c3430aeb3c40ec90773e
gd89-10-23 s2t07 Drums.flac:1615b0e802393f571c2b9a8bba9e1af5
gd89-10-23 s2t08 Space.flac:007b049904cd6772f76e6d1f44b7d81f
gd89-10-23 s2t09 I Will Take You Home.flac:08b9af01b2b47bdcf7790898af643d42
gd89-10-23 s2t10 Goin' Down The Road Feeling Bad.flac:0b6541bf13960639b28867119d3efe43
gd89-10-23 s2t11 Standing On The Moon.flac:c4fa1de7cd254ef5b03a1497aeb85ff0
gd89-10-23 s2t12 Turn On Your Lovelight.flac:e2d06d4a40d720da8d6e0d2f40b5c211
gd89-10-23 s2t13 Encore Break.flac:859d60ae98ce9eaa249e62d47334b4fb
gd89-10-23 s2t14 Attics Of My Life.flac:0b2a2902da0c41670f62189f6adb121c
flac-md5
b99e58e4ec5cbc49d425b836c3a3fb61 *gd89-10-23 s1t01 Crowd.flac
5c25aa367092f24339e8bdd382184716 *gd89-10-23 s1t02 California Earthquake.flac
30c90a5c6fc8c3bca198d2ead55b77a9 *gd89-10-23 s1t03 Feel Like A Stranger.flac
b58694b1b419845437a740f9329ae144 *gd89-10-23 s1t04 Loser.flac
0df90c36bd5a4a2e51f0f59291780661 *gd89-10-23 s1t05 Walkin' Blues.flac
fb58d9d11d22a091c0ae73e23e6b7d7a *gd89-10-23 s1t06 Bertha.flac
d8d7d61585d3de10c0c75b24eb1a3005 *gd89-10-23 s1t07 When I Paint My Masterpiece.flac
f69f1294a6619d3671522b4b3b2a05ef *gd89-10-23 s1t08 Tennessee Jed.flac
7001f2e4e37ddb9000060709784f4062 *gd89-10-23 s1t09 Let It Grow.flac
7a4a173a3177b7353d5d8deff379a941 *gd89-10-23 s2t01 Crowd.flac
28dba5109ba03cd5850d96ee29f2a16a *gd89-10-23 s2t02 Touch Of Grey.flac
62e4d2ddfbfde225a6fe8c1eb1cbfd64 *gd89-10-23 s2t03 Looks Like Rain.flac
04c89a1301385b6ebd8491fec9e18ec7 *gd89-10-23 s2t04 We Can Run.flac
c02eac1868c0ca114203e6af95c1b629 *gd89-10-23 s2t05 Crazy Fingers.flac
c21517c7912cea53c58b4d4d56293fbb *gd89-10-23 s2t06 Terrapin Station.flac
1e0e1dadfb5e320a6119226f46568b33 *gd89-10-23 s2t07 Drums.flac
687a8da03dc0ee718c746629b22a28a9 *gd89-10-23 s2t08 Space.flac
c9000c4e1384128871e47bdeced6131a *gd89-10-23 s2t09 I Will Take You Home.flac
0829127e05b033841a49d10d52ad1480 *gd89-10-23 s2t10 Goin' Down The Road Feeling Bad.flac
0448b6e9bed4c017f7df88249dfd4239 *gd89-10-23 s2t11 Standing On The Moon.flac
2d820df2c029fcef97f644f56f7f472a *gd89-10-23 s2t12 Turn On Your Lovelight.flac
6a5e9cbfc7d2e3ca3b19926030e44e56 *gd89-10-23 s2t13 Encore Break.flac
c7ec0d1cd14ac1dbdd5da047c7feb52c *gd89-10-23 s2t14 Attics Of My Life.flac

Comments
Add Comment
Other Sources (comments)
SBD>Cassette Master> Sonic... (6) flac16; Recording... (0) flac16; Source:... (0) flac16; Matrix by... (0) flac16: Master... (0) flac24: Master... (0) flac16; Source: Set... (0)
Date User Comment