Browse Collections Artists Sources   Search Dates

Add Show    List Management    Help


Grateful Dead 10/02/87
Shoreline Amphitheatre, Mountain View, CA
Comments Add Comment    Source Collectors    Add to Collection    Add to Want List    History
Source # 142580 Other Sources
Entered by Matt Vernon
Checksums flac-md5 , ffp
Disc Counts 0 / 0
Media Size Compressed: 816.87 MB (856547328 bytes)
Date Circulated
Date Added
07/09/2018
07/09/2018
Source Summary flac16; Recording Info: SBD > Beta HiFi Master (Sony Betamax/TDK HS); Transfer Info: Beta HiFi Master (Sony SL-HF66) > Tascam DA-3000 (DSF 1-bit/5.6MHz) > dBpoweramp > Samplitude Pro X3 Suite > FLAC/24; All Transfers and Mastering By Charlie Miller 
  Archive
Source Information - Download Text | Download Zip
Grateful Dead - October 2, 1987
Shoreline Amphitheatre - Mountain View, CA

Recording Info:
SBD > Beta HiFi Master (Sony Betamax/TDK HS)

Transfer Info:
Beta HiFi Master (Sony SL-HF66) > Tascam DA-3000 (DSF 1-bit/5.6MHz) >
dBpoweramp > Samplitude Pro X3 Suite > FLAC/24
(1 DVD FLAC)

All Transfers and Mastering By Charlie Miller
[email protected]
June 30, 2018

Notes:
-- This is a Healy Mix SBD with no ambient mics
-- Set 2 has line level distortion during some loud parts
-- This file set is 16 bit at 44.1

Set 1:
01 - Tuning
02 - Cold Rain And Snow
03 - Little Red Rooster
04 - Stagger Lee
05 - Me And My Uncle >
06 - Mexicali Blues
07 - Row Jimmy
08 - Far From Me
09 - Let It Grow

Set 2:
10 - China Cat Sunflower >
11 - I Know You Rider
12 - Man Smart (Woman Smarter)
13 - Ship Of Fools
14 - Truckin' >
15 - Drums >
16 - Space >
17 - The Wheel >
18 - Gimme Some Lovin' >
19 - All Along The Watchtower
20 - Don't Ease Me In

Encore:
21 - Encore Break
22 - Black Muddy River


SHNTOOL OUTPUT:
    length     expanded size    cdr  WAVE problems  fmt   ratio  filename
     1:19.50       14053244 B   ---   --   ---xx   flac  0.3845  01 Tuning.flac
     7:00.52       74210348 B   ---   --   ---xx   flac  0.5595  02 Cold Rain And Snow.flac
     8:56.66       94705676 B   ---   --   ---xx   flac  0.5705  03 Little Red Rooster.flac
     6:49.17       72187628 B   ---   --   ---xx   flac  0.5242  04 Stagger Lee.flac
     3:06.14       32843372 B   ---   --   ---xx   flac  0.6061  05 Me And My Uncle.flac
     5:56.69       62960732 B   ---   --   ---xx   flac  0.5436  06 Mexicali Blues.flac
    10:44.01      113603996 B   ---   --   ---xx   flac  0.5260  07 Row Jimmy.flac
     4:27.37       47185868 B   ---   --   ---xx   flac  0.6053  08 Far From Me.flac
    13:07.70      138991484 B   ---   --   ---xx   flac  0.5959  09 Let It Grow.flac
     5:59.55       63457004 B   ---   --   ---xx   flac  0.5638  10 China Cat Sunflower.flac
     5:26.72       57675788 B   ---   --   ---xx   flac  0.6138  11 I Know You Rider.flac
     8:08.45       86189084 B   ---   --   ---xx   flac  0.6041  12 Man Smart (Woman Smarter).flac
     7:56.59       84105212 B   ---   --   ---xx   flac  0.5751  13 Ship Of Fools.flac
     9:28.62      100341068 B   ---   --   ---xx   flac  0.6038  14 Truckin'.flac
     8:23.34       88809212 B   ---   --   ---xx   flac  0.4972  15 Drums.flac
     7:40.04       81153452 B   ---   --   ---xx   flac  0.4808  16 Space.flac
     4:55.55       52167404 B   ---   --   ---xx   flac  0.5800  17 The Wheel.flac
     4:55.49       52153292 B   ---   --   ---xx   flac  0.6227  18 Gimme Some Lovin'.flac
     6:22.14       67417772 B   ---   --   ---xx   flac  0.6325  19 All Along The Watchtower.flac
     3:32.43       37497980 B   ---   --   ---xx   flac  0.6253  20 Don't Ease Me In.flac
     2:53.24       30573692 B   ---   --   ---xx   flac  0.3450  21 Encore Break.flac
     6:10.21       65317436 B   ---   --   ---xx   flac  0.5767  22 Black Muddy River.flac
   143:23.13     1517600744 B                            0.5644  (22 files)



Show Checksums
flac-md5
88d2d2daf2e8268829ef89e318928cbb *01 Tuning.flac
acea3e29bb81888fdcee50ca62393b97 *02 Cold Rain And Snow.flac
cc640ba339d3a7382a1c87ac59df4942 *03 Little Red Rooster.flac
560832655ec79173a22c053bd84a22bd *04 Stagger Lee.flac
0c4c16d87fb97a8412c628f5bd8dbffd *05 Me And My Uncle.flac
e2ab8f20af3d3467a7b4d9eaee715eb9 *06 Mexicali Blues.flac
f9079c61ccd24bfcf726274ec1db9fc1 *07 Row Jimmy.flac
7ff2679124ac1bfcf65df3a674f31a98 *08 Far From Me.flac
d1af1da22a3f07ac27ca477a5d31d6ac *09 Let It Grow.flac
6f05237b6f942577594ffb42ac0aa5c8 *10 China Cat Sunflower.flac
68d6e744e666803ddf7709f4819d9f00 *11 I Know You Rider.flac
7e436fdcff738e04c8b0045b72fad08c *12 Man Smart (Woman Smarter).flac
adf6552e67bb98eda7c379dfbd1aa4e9 *13 Ship Of Fools.flac
233ef6cc27ffc8bbb24b13214f08ee8a *14 Truckin'.flac
97c5c72719a737a4fc2b84512b013b58 *15 Drums.flac
dc93316344a3b2926b28a2d8c273d297 *16 Space.flac
d091aa42aeb65244020550c193097d6b *17 The Wheel.flac
90ea22673f54b27c83c5b9458c5b39cc *18 Gimme Some Lovin'.flac
e76615f0500b79f88207f18425496786 *19 All Along The Watchtower.flac
6222fde5fdf987b23ff63f1559204bbf *20 Don't Ease Me In.flac
bd7f935bb48a5dcaa7aa714ff2e1880c *21 Encore Break.flac
5ed430e1e2a864851fdff29e491171bf *22 Black Muddy River.flac
ffp
01 Tuning.flac:e01f6b52bdf5f9355641bacd7a49aacd
02 Cold Rain And Snow.flac:f872c0e57cca115fd3bcaaff1c2167f2
03 Little Red Rooster.flac:17fe4ab08045fc01cf53e39fea6ebb8c
04 Stagger Lee.flac:0d936124dc10c07ffc30d31b30686601
05 Me And My Uncle.flac:2434b4bd8fc413472e7e17d25f4d32b0
06 Mexicali Blues.flac:ef9db517fcc3a38d5eb4fe12be14fdaf
07 Row Jimmy.flac:88d648f91f6cb55d079ae40b60749b74
08 Far From Me.flac:826d86d5256aa408da2a3db3ada71551
09 Let It Grow.flac:b4f7fbc0c16fd8cc702aca2c44c1bd95
10 China Cat Sunflower.flac:8ea7de4e2ebe0a94c6184e296428243d
11 I Know You Rider.flac:36c6ba66d4f55bd80047407f4802269b
12 Man Smart (Woman Smarter).flac:b6d5a5a2d82ec8a3c57301af563b03db
13 Ship Of Fools.flac:6f5867c57881b943b22abac5e5660fe2
14 Truckin'.flac:431fba1ad45ef8101fac39f548f7f83d
15 Drums.flac:7a4c1e0d433c4807b91ed7ee210e75ab
16 Space.flac:7211328a5fb549a86fa3c7b371c8134b
17 The Wheel.flac:e018ab8030503e4cf2634b7050938415
18 Gimme Some Lovin'.flac:75c8f9b94461219985da495ea17dc5de
19 All Along The Watchtower.flac:3cd2bd9e7e7e4f336d6c9ae7fd83cc18
20 Don't Ease Me In.flac:9fe1828f0845c7807c5558d7fc99f1c0
21 Encore Break.flac:d5b9112d810dfb7920695b78a10498f7
22 Black Muddy River.flac:5104e9760bb825fa8733fb3b841ce782

Comments
Add Comment
Other Sources (comments)
SBD> CM> DAT> WAV (Ego Sys... (0) Jay Ashley (Bertha)... (0) SBD> CM> DAT> WAV> CD> EAC>... (0) flac16; Recording... (0) flac16; Hat Mounted... (1) flac16; Recording... (0) flac16; Source Info:... (0) flac24; Recording... (0)
Date User Comment