Browse Collections Artists Sources   Search Dates

Add Show    List Management    Help


Grateful Dead 07/09/89
Giants Stadium, East Rutherford, NJ
Comments Add Comment    Source Collectors    Add to Collection    Add to Want List    History
Source # 142582 Other Sources
Entered by Matt Vernon
Checksums flac-md5 , ffp
Disc Counts 0 / 0
Media Size Compressed: 990 MB (1038090240 bytes)
Uncompressed: 1.68 GB (1803550720 bytes)
Date Circulated
Date Added
07/09/2018
07/09/2018
Source Summary flac16; Matrix 2 Source Mix - SBD (shnid=142581) Recording Info: UltraMatrix SBD > Cassette Master (TDK MA-XG90); Transfer Info: Cassette Master (Nakamichi CR-7A) > Tascam DA-3000 (DSF 1-bit/5.6 MHz) > KORG AudioGate 4 > Adobe Audition CC 2015 > Samplitude Pro X3 Suite > FLAC/24; All Transfers and Mastering By Charlie Miller + AUD (shn id 133773) MSource: AKG 414-BTL (cardioid X-Y) > Neuman BS945i > Technics SVMD1 DAT; Lineage: Master DAT @ 48kHz > Panasonic SV3700 > 48kHz 16bit Wav > Sample Manager > 44.1kHz 24bit Wav > Wavelab 8.5 / Izotope Ozone 6.1 / MBit+ Dither > 44.1kHz 16bit wav; Recorded, Transferred and Digitally Mastered by Dan Tepper - matrix mixing by Kevin Tobin 
  Archive
Source Information - Download Text | Download Zip
Grateful Dead
July 9, 1989
Giants Stadium
East Rutherford, NJ

SBD + AUD Matrix 2 Source Mix (44/16)

Set 1:
d1t01 - Tuning
d1t02 - Shakedown Street >
d1t03 - Jack Straw
d1t04 - West L.A. Fadeaway
d1t05 - Victim Or The Crime
d1t06 - Brown Eyed Women
d1t07 - Queen Jane Approximately
d1t08 - Bird Song

Set 2:
d2t01 - China Cat Sunflower >
d2t02 - I Know You Rider
d2t03 - Samson And Delilah
d2t04 - Built To Last
d2t05 - Truckin' >
d2t06 - Drums >
d3t01 - Space >
d3t02 - Gimme Some Lovin' >
d3t03 - Goin' Down The Road Feeling Bad >
d3t04 - Throwing Stones >
d3t05 - Not Fade Away
d3t06 - NFA Crowd Chant

Encore:
d3t07 - Brokedown Palace

Jerry Garcia - Guitar
Bob Weir - Guitar
Brent Mydland - Keyboards
Phil Lesh - Bass
Bill Kreutzmann - Drums
Mickey Hart - Drums

Audio Source Information
Original SBD (shnid = 142581)
Recording Info:
UltraMatrix SBD > Cassette Master (TDK MA-XG90)

Transfer Info:
Cassette Master (Nakamichi CR-7A) > Tascam DA-3000 (DSF 1-bit/5.6 MHz) >
KORG AudioGate 4 > Adobe Audition CC 2015 > Samplitude Pro X3 Suite > FLAC/24
(1 Disc FLAC)

All Transfers and Mastering By Charlie Miller
[email protected]
July 9, 2018

Patch Info:
(FOB) AKG 414TL -> Dat (shnid=133773) supplies:
Brokedown Palace (4:25 - end of song)

Notes:
-- This is a fix of shnid=141761 (Cleaned up tape flip in Victim Or The Crime)
-- Thanks to Dan tepper for the patch source

Original  AUD (shnid=133773)
Recorded, Transferred and Digitally Mastered by Dan Tepper

Source: AKG 414-BTL (cardioid X-Y) > Neuman BS945i > Technics SVMD1 DAT
Lineage: Master DAT @ 48kHz > Panasonic SV3700  > 48kHz 16bit Wav > Sample Manager > 44.1kHz 24bit Wav > Wavelab 8.5 / Izotope Ozone 6.1 / MBit+ Dither > 44.1kHz 16bit wav
---------------------------------------------------------
- Mixed by ke[email protected]
- FLAC conversion 09-JUL-2018 - Trader Little Helper
- Tagged 09-JUL-2018 - Tag&Rename
---------------------------------------------------------
Brokedown House Production

    length     expanded size    cdr  WAVE problems  fmt   ratio  filename
     0:43.14        7618172 B   ---   --   -----    wav  1.0000  gd1989-07-09d1t01.wav
    13:08.16      139040876 B   ---   --   -----    wav  1.0000  gd1989-07-09d1t02.wav
     5:48.02       61391948 B   ---   --   -----    wav  1.0000  gd1989-07-09d1t03.wav
    11:27.29      121255052 B   ---   --   -----    wav  1.0000  gd1989-07-09d1t04.wav
     8:33.08       90512060 B   ---   --   -----    wav  1.0000  gd1989-07-09d1t05.wav
     5:56.27       62861948 B   ---   --   -----    wav  1.0000  gd1989-07-09d1t06.wav
     7:52.28       83326700 B   ---   --   -----    wav  1.0000  gd1989-07-09d1t07.wav
    11:31.45      121998284 B   ---   --   -----    wav  1.0000  gd1989-07-09d1t08.wav
     6:39.49       70498892 B   ---   --   -----    wav  1.0000  gd1989-07-09d2t01.wav
     6:20.22       67083788 B   ---   --   -----    wav  1.0000  gd1989-07-09d2t02.wav
     7:28.55       79156604 B   ---   --   -----    wav  1.0000  gd1989-07-09d2t03.wav
     5:33.32       58816508 B   ---   --   -----    wav  1.0000  gd1989-07-09d2t04.wav
    10:51.28      114902300 B   ---   --   -----    wav  1.0000  gd1989-07-09d2t05.wav
     9:18.00       98431244 B   ---   --   -----    wav  1.0000  gd1989-07-09d2t06.wav
    10:00.08      105858860 B   ---   --   -----    wav  1.0000  gd1989-07-09d3t01.wav
     5:17.31       55991756 B   ---   --   -----    wav  1.0000  gd1989-07-09d3t02.wav
     6:30.31       68868956 B   ---   --   -----    wav  1.0000  gd1989-07-09d3t03.wav
    10:14.50      108427244 B   ---   --   -----    wav  1.0000  gd1989-07-09d3t04.wav
     9:40.73      102483740 B   ---   --   -----    wav  1.0000  gd1989-07-09d3t05.wav
     4:10.21       44149436 B   ---   --   -----    wav  1.0000  gd1989-07-09d3t06.wav
     5:26.05       57518204 B   ---   --   -----    wav  1.0000  gd1989-07-09d3t07.wav
   162:31.49     1720192572 B                            1.0000  (21 files)



Show Checksums
flac-md5
de89c28797e4db29295cf65787a18d37 *gd1989-07-09d1t01.flac
0b36d81743b0ecaf255c36fde2853f7a *gd1989-07-09d1t02.flac
6a519b7f784ce25507efc80becb3f962 *gd1989-07-09d1t03.flac
dbf8258706276039e9684941d83131b8 *gd1989-07-09d1t04.flac
6318ae765f3fd3613dd367c4e0a9b0ac *gd1989-07-09d1t05.flac
ced8bf42082958d7a4e0b0b0df666455 *gd1989-07-09d1t06.flac
7017745feee9c852832eca023e013645 *gd1989-07-09d1t07.flac
6de20e0477b3401aa0724ef0f7f96ae9 *gd1989-07-09d1t08.flac
46fb2562a2905d605fc7267fbfdad99c *gd1989-07-09d2t01.flac
c582762d45840ec6e8903b9180a5e89f *gd1989-07-09d2t02.flac
ac1adcff3262e29b4050a0c34ba18729 *gd1989-07-09d2t03.flac
8e01371c3651e4880a76f039fc2ec1fc *gd1989-07-09d2t04.flac
de0c61c78528c16227ec7c719deb79b0 *gd1989-07-09d2t05.flac
fb7eef1edb218f6ecb9e44b38db7aedd *gd1989-07-09d2t06.flac
376fe54142a294682a2f579103abb6b6 *gd1989-07-09d3t01.flac
3c32346967c198a3e5cc46ff70026132 *gd1989-07-09d3t02.flac
2888856be47f434a960d1efc7e311459 *gd1989-07-09d3t03.flac
be51cfd3a36ca0aa2cf12a500a7622ea *gd1989-07-09d3t04.flac
707632202e6d3af4a46279463344c94e *gd1989-07-09d3t05.flac
db9869c51d0277c4c3b12954e7469c46 *gd1989-07-09d3t06.flac
51df6ada1288207760461e2a9adf6bf6 *gd1989-07-09d3t07.flac
ffp
gd1989-07-09d1t01.flac:1a851e71c2953f6fac4589edee5459e2
gd1989-07-09d1t02.flac:95a5cded8143381f2a3bb85a48c67a80
gd1989-07-09d1t03.flac:fbb98e27c4149567054c0711aef84af9
gd1989-07-09d1t04.flac:c9a385f4f5bc0a91ba2fd624376f2085
gd1989-07-09d1t05.flac:5b95d6788b7cc6b940fee4d430d7189e
gd1989-07-09d1t06.flac:323e30e27c5f7f432e79383e74e9bc50
gd1989-07-09d1t07.flac:67332576c1804212199eeaa7e7d33507
gd1989-07-09d1t08.flac:06f1a323c2633cd84575025e3008aac4
gd1989-07-09d2t01.flac:e52ed691d966c8f3ccff27d0da9f2378
gd1989-07-09d2t02.flac:1f9d46b21ca75031993ee1194e404925
gd1989-07-09d2t03.flac:56213fa3bb4c173be6d88587f79136cf
gd1989-07-09d2t04.flac:a9125f9d9a1c1e56d81ffcce5a2459c8
gd1989-07-09d2t05.flac:7621bb220bebe62436aa9e5e6bacebf3
gd1989-07-09d2t06.flac:7ca3ca858ab4a912b99843b0067c736c
gd1989-07-09d3t01.flac:88ec1203ea5e1bca2fb3f7c02ad67ff2
gd1989-07-09d3t02.flac:afc78b0e2a68be23f6e267e595707795
gd1989-07-09d3t03.flac:99a38d9449f93119e0380edfb9bdfda0
gd1989-07-09d3t04.flac:81c464a1924abf93fac976f08113f8dd
gd1989-07-09d3t05.flac:7d0193dc3245e99c7797f8d69a2fae13
gd1989-07-09d3t06.flac:bc613ff7bcac5782fc68210a1213f43e
gd1989-07-09d3t07.flac:66981ca47b0855f466249ec79c97ff44

Comments
Add Comment
Other Sources (comments)
AKG 414TL's fob; via... (0) AUD (FOB/ AKG414TL)>> ???>>... (0) flac16; AKG 414s >... (0) flac24; SRC: AKG... (0) flac16; Recording... (0) Source: AKG 414TL (FOB) >... (0) flac16; Master: FOB... (0) flac16; 2 Source... (0) flac24; Master... (0) flac16; Master... (0) flac16; Source: AKG... (2) flac24; Recording... (0) flac16; Recording... (0) flac16/48kHz; Source... (0) flac24; Recording... (0) DTS-Audio-CD 5.1... (0) flac16/48kHz; 5.1... (0) flac16; Recording... (0)
Date User Comment