Browse Collections Artists Sources   Search Dates

Add Show    List Management    Help


Grateful Dead 03/27/83
Irvine Meadows, Irvine, CA
Comments Add Comment    Source Collectors    Add to Collection    Add to Want List    History
Source # 142767 Other Sources
Entered by Matt Vernon
Checksums ffp , flac-md5
Disc Counts 0 / 0
Media Size
Date Circulated
Date Added
07/26/2018
07/26/2018
Source Summary flac16/48kHz; Set 2 Recording Info: Master Soundboard Cassettes > Technics Reel to Reel > Panasonic SV-3800 Dat 16/48; Transfer Info: Dat (Sony PCM-R500 16/48) > Apogee aes/ebu cable > Tascam DA-3000 (.wav 16/48) > Adobe Audition 3.0 > TLH flac1648; This is a patched and pitch corrected version of shnid 140316 
  Archive
Source Information - Download Text | Download Zip
Grateful Dead
Irvine Meadows Amphitheatre
Irvine, CA
Sunday March 27th, 1983

This is a patched and pitch corrected version of shnid140316

Recording Info:
Master Soundboard Cassettes > Technics Reel to Reel > Panasonic SV-3800 Dat 16/48

Transfer Info:
Dat (Sony PCM-R500 16/48) > Apogee aes/ebu cable > Tascam DA-3000 (.wav 16/48) > Adobe Audition 3.0 > TLH flac1648

Notes:
- Thanks to Rob Eaton for the source Dat
- Thanks to Charlie Miller for the transfer
- Thanks to Paul and Ernie Dodd for the shnid11261 Sennheiser 421 source which supplies a 1:37 patch in "Truckin'"
- Thanks to Joe B. Jones for his help with the pitch correction

Mastered by Scott Clugston
July 2018

Set Two:
s2t01 - Tuning
s2t02 - China Cat Sunflower >
s2t03 - I Know You Rider >
s2t04 - Samson & Delilah
s2t05 - He's Gone >
s2t06 - Truckin' >
s2t07 - Drums >
s2t08 - Space >
s2t09 - Throwing Stones >
s2t10 - Wharf Rat >
s2t11 - Good Lovin'
Encore
s2t12 - US Blues


    length     expanded size    cdr  WAVE problems  fmt   ratio  filename
     0:20.293       3896364 B   cxx   --   ---xx   flac  0.4273  gd83-03-27 s2t01 Tuning.flac
     6:17.547      72489004 B   cxx   --   ---xx   flac  0.6018  gd83-03-27 s2t02 China Cat Sunflower.flac
     5:39.840      65249324 B   cxx   --   ---xx   flac  0.6424  gd83-03-27 s2t03 I Know You Rider.flac
     8:46.293     101048364 B   cxx   --   ---xx   flac  0.6325  gd83-03-27 s2t04 Samson & Delilah.flac
    11:59.680     138178604 B   cxx   --   ---xx   flac  0.6001  gd83-03-27 s2t05 He's Gone.flac
     9:22.587     108016684 B   cxx   --   ---xx   flac  0.6165  gd83-03-27 s2t06 Truckin'.flac
     8:15.640      95162924 B   cxx   --   ---xx   flac  0.5200  gd83-03-27 s2t07 Drums.flac
     8:08.053      93706284 B   cxx   --   ---xx   flac  0.5226  gd83-03-27 s2t08 Space.flac
     7:48.747      89999404 B   cxx   --   ---xx   flac  0.6251  gd83-03-27 s2t09 Throwing Stones.flac
    10:11.680     117442604 B   cxx   --   ---xx   flac  0.6038  gd83-03-27 s2t10 Wharf Rat.flac
     8:55.880     102889004 B   cxx   --   ---xx   flac  0.6351  gd83-03-27 s2t11 Good Lovin'.flac
     5:04.650      58492924 B   cxx   --   ---xx   flac  0.6384  gd83-03-27 s2t12 US Blues.flac
    90:50.890    1046571488 B                            0.6010  (12 files)



Show Checksums
ffp
gd83-03-27 s2t01 Tuning.flac:e934cd056abf8d8f5b9135b36220fc83
gd83-03-27 s2t02 China Cat Sunflower.flac:f7b8225e30fdc41862156a29d2b60c6d
gd83-03-27 s2t03 I Know You Rider.flac:31740b1d3b256cdd2b08eb4a5df2aa00
gd83-03-27 s2t04 Samson & Delilah.flac:45384dcc6a967c46b0b4f7174bab8c8c
gd83-03-27 s2t05 He's Gone.flac:96edeecfe3a0da7e4d630c8728a06405
gd83-03-27 s2t06 Truckin'.flac:49742621febd6a062c988a3323a73966
gd83-03-27 s2t07 Drums.flac:fc6e9acfc9541391153089d2f2ff747d
gd83-03-27 s2t08 Space.flac:f9348323b0274cc8c55aa12a7a76a479
gd83-03-27 s2t09 Throwing Stones.flac:268c4468ec4134999ba5c59c6061faee
gd83-03-27 s2t10 Wharf Rat.flac:7b70a8a4e566f0e5a58796300eb9e8df
gd83-03-27 s2t11 Good Lovin'.flac:0b28987538b04e6642fa8f161b14de35
gd83-03-27 s2t12 US Blues.flac:114e5f3061d6f10abfda24089231f0ad
flac-md5
4a2173a0813321dc9c800d88ec523887 *gd83-03-27 s2t01 Tuning.flac
695afdba5049d911060bd5c97b695537 *gd83-03-27 s2t02 China Cat Sunflower.flac
9389faa03ad120060718ff87e5b886b0 *gd83-03-27 s2t03 I Know You Rider.flac
bfc2a1c3d93d485af969154d8fbb98d9 *gd83-03-27 s2t04 Samson & Delilah.flac
89e26f04cb20f8d3caafa5ed39d4a8c5 *gd83-03-27 s2t05 He's Gone.flac
d30cd01c75515963b219914266679c30 *gd83-03-27 s2t06 Truckin'.flac
dd97fe869d2d8a813ca7b5b0b804d3a3 *gd83-03-27 s2t07 Drums.flac
6d0c5c1a6f30270120b9a443c3da5ead *gd83-03-27 s2t08 Space.flac
b4c17d2a8fa9fa7831758199429ff73c *gd83-03-27 s2t09 Throwing Stones.flac
360aaf0b7aebf5384ebfd029a34af492 *gd83-03-27 s2t10 Wharf Rat.flac
453ca3e325e577ca954e4fe4369cdbd8 *gd83-03-27 s2t11 Good Lovin'.flac
e4afd23aff76acdf9c37e7eb0f79f3b9 *gd83-03-27 s2t12 US Blues.flac

Comments
Add Comment
Other Sources (comments)
AUD> MC> DAT> CDR Senn... (0) flac16/48kHz; Set 2... (0) flac16/48kHz;... (0) flac16; Source Info:... (0)
Date User Comment