Browse Collections Artists Sources   Search Dates

Add Show    List Management    Help


Grateful Dead 03/27/83
Irvine Meadows, Irvine, CA
Comments Add Comment    Source Collectors    Add to Collection    Add to Want List    History
Source # 142768 Other Sources
Entered by Matt Vernon
Checksums ffp , flac-md5
Disc Counts 0 / 0
Media Size
Date Circulated
Date Added
07/26/2018
07/26/2018
Source Summary flac16/48kHz; Recording Info: Master Soundboard Cassettes > Cassette > Dat 16/48; Transfer Info: Dat (Sony PCM-R500 16/48) > Apogee aes/ebu cable > Tascam DA-3000 (.wav 16/48) > Adobe Audition 3.0 > TLH flac1648 
  Archive
Source Information - Download Text | Download Zip
Grateful Dead
Irvine Meadows Amphitheatre
Irvine, CA
Sunday March 27th, 1983

Recording Info:
Master Soundboard Cassettes > Cassette > Dat 16/48

Transfer Info:
Dat (Sony PCM-R500 16/48) > Apogee aes/ebu cable > Tascam DA-3000 (.wav 16/48) > Adobe Audition 3.0 > TLH flac1648

Notes:
- Thanks to Tim Dalton for the source Dat
- Thanks to Charlie Miller for the transfer
- Thanks to Paul and Ernie Dodd for the shnid11261 Sennheiser 421 source which supplies a 3:15 patch at the end of "Brother Esau" and beginning of "Deal", as well as a 1:37 patch in "Truckin'"
- Thanks to Joe B. Jones for his help with the pitch correction

Mastered by Scott Clugston
July 2018

Set One:
s1t01 - Shakedown Street
s1t02 - New Minglewood Blues
s1t03 - They Love Each Other
s1t04 - Cassidy
s1t05 - Loser
s1t06 - My Brother Esau >
s1t07 - Deal

Set Two:
s2t01 - Tuning
s2t02 - China Cat Sunflower >
s2t03 - I Know You Rider >
s2t04 - Samson & Delilah
s2t05 - He's Gone >
s2t06 - Truckin' >
s2t07 - Drums >
s2t08 - Space >
s2t09 - Throwing Stones >
s2t10 - Wharf Rat >
s2t11 - Good Lovin'
Encore
s2t12 - US Blues


    length     expanded size    cdr  WAVE problems  fmt   ratio  filename
    12:58.920     149552684 B   cxx   --   ---xx   flac  0.5652  gd83-03-27 s1t01 Shakedown Street.flac
     7:51.267      90483244 B   cxx   --   ---xx   flac  0.5747  gd83-03-27 s1t02 New Minglewood Blues.flac
     8:59.093     103505964 B   cxx   --   ---xx   flac  0.5562  gd83-03-27 s1t03 They Love Each Other.flac
     5:40.307      65338924 B   cxx   --   ---xx   flac  0.5781  gd83-03-27 s1t04 Cassidy.flac
     7:21.107      84692524 B   cxx   --   ---xx   flac  0.5713  gd83-03-27 s1t05 Loser.flac
     7:05.907      81774124 B   cxx   --   ---xx   flac  0.5787  gd83-03-27 s1t06 My Brother Esau.flac
     8:32.920      98480684 B   cxx   --   ---xx   flac  0.6032  gd83-03-27 s1t07 Deal.flac
     0:23.213       4457004 B   cxx   --   ---xx   flac  0.4587  gd83-03-27 s2t01 Tuning.flac
     6:50.907      78894124 B   cxx   --   ---xx   flac  0.5824  gd83-03-27 s2t02 China Cat Sunflower.flac
     5:08.773      59284524 B   cxx   --   ---xx   flac  0.5996  gd83-03-27 s2t03 I Know You Rider.flac
     9:33.107     110036524 B   cxx   --   ---xx   flac  0.5806  gd83-03-27 s2t04 Samson & Delilah.flac
    11:55.880     137449004 B   cxx   --   ---xx   flac  0.5645  gd83-03-27 s2t05 He's Gone.flac
     9:20.867     107686444 B   cxx   --   ---xx   flac  0.6026  gd83-03-27 s2t06 Truckin'.flac
     7:55.893      91371564 B   cxx   --   ---xx   flac  0.5144  gd83-03-27 s2t07 Drums.flac
     8:21.040      96199724 B   cxx   --   ---xx   flac  0.5233  gd83-03-27 s2t08 Space.flac
     8:01.240      92398124 B   cxx   --   ---xx   flac  0.6240  gd83-03-27 s2t09 Throwing Stones.flac
    10:03.040     115783724 B   cxx   --   ---xx   flac  0.6038  gd83-03-27 s2t10 Wharf Rat.flac
     8:55.587     102832684 B   cxx   --   ---xx   flac  0.6351  gd83-03-27 s2t11 Good Lovin'.flac
     5:04.688      58500108 B   cxx   --   ---xx   flac  0.6384  gd83-03-27 s2t12 US Blues.flac
   150:03.754    1728721700 B                            0.5810  (19 files)


Show Checksums
ffp
gd83-03-27 s1t01 Shakedown Street.flac:98702fcaf31fcbe3f13e66b7742845d4
gd83-03-27 s1t02 New Minglewood Blues.flac:b0c6772f6757290c5c1ccd73dc25a091
gd83-03-27 s1t03 They Love Each Other.flac:3517047cbd5ee3be3022728fd57ff384
gd83-03-27 s1t04 Cassidy.flac:4c6f55761b281c150e812414e4da7799
gd83-03-27 s1t05 Loser.flac:5d8022142ee1f2e133fe1fa54a91dd41
gd83-03-27 s1t06 My Brother Esau.flac:0f7e783553325ba63ec6e3be7be6811c
gd83-03-27 s1t07 Deal.flac:7e57cf53c6f9d82db0e5d19a795dc0b5
gd83-03-27 s2t01 Tuning.flac:539bf87de3a26fc50486ce9469e3753d
gd83-03-27 s2t02 China Cat Sunflower.flac:56aa380a4093b76be4d424d9d81375b4
gd83-03-27 s2t03 I Know You Rider.flac:06e6d1f7b1a180a7dc193f8a6f86ebb6
gd83-03-27 s2t04 Samson & Delilah.flac:42593fe1ab57ade159fe4c6a6eb575b9
gd83-03-27 s2t05 He's Gone.flac:84ce371ceff47b158631d7242ba7243d
gd83-03-27 s2t06 Truckin'.flac:af02d94a85e24ace71544ced4070b5c1
gd83-03-27 s2t07 Drums.flac:34de9ca7d1887ce5bbfe85423dafb087
gd83-03-27 s2t08 Space.flac:157dc8a4881bd1f934d6be3febdb208e
gd83-03-27 s2t09 Throwing Stones.flac:68c328dab251e16fcd20c1e59b2ff39e
gd83-03-27 s2t10 Wharf Rat.flac:9aee8c77f0b6e7f6bae735ea34bd6b8a
gd83-03-27 s2t11 Good Lovin'.flac:d44ba5e75176f403987e989d59a5fa1a
gd83-03-27 s2t12 US Blues.flac:7da0a1c66e19f0da1cb97264d3d01f56
flac-md5
d3bbdceb1e9323183d60657ae0888197 *gd83-03-27 s1t01 Shakedown Street.flac
82cd5cf7f9e4d3c084e8374751b0c5fd *gd83-03-27 s1t02 New Minglewood Blues.flac
5c247ec46522d1eb0fd9edb7f03586aa *gd83-03-27 s1t03 They Love Each Other.flac
d81092c0d6a8ca5d21fe799410b33af6 *gd83-03-27 s1t04 Cassidy.flac
e2c2049ab6ff7bcd4ad506ecaa7ee303 *gd83-03-27 s1t05 Loser.flac
7bdbad6f22189adf0f7737e5d3d65273 *gd83-03-27 s1t06 My Brother Esau.flac
e9f1927d71a1c84061f9a6f614415d33 *gd83-03-27 s1t07 Deal.flac
87e9388ec9bdd6507f6900dcdff5fe62 *gd83-03-27 s2t01 Tuning.flac
6673a4864acd07cdb1ce61f2fa219684 *gd83-03-27 s2t02 China Cat Sunflower.flac
5942e1522d4e79e013db04c319b0fbd6 *gd83-03-27 s2t03 I Know You Rider.flac
10344d88577c4d8f000e8bb6a92abe0c *gd83-03-27 s2t04 Samson & Delilah.flac
dac7ff1286cc9b151ed3c476399c54ec *gd83-03-27 s2t05 He's Gone.flac
868c8fdf6948a12f06adb272211bbfb1 *gd83-03-27 s2t06 Truckin'.flac
46eda4460a0063baae8c01f1e8c76a4b *gd83-03-27 s2t07 Drums.flac
823a3cb7381d820783607f4cbacfa641 *gd83-03-27 s2t08 Space.flac
39e033a6f8df20b7230ac39f61a7c2af *gd83-03-27 s2t09 Throwing Stones.flac
fa590cb264917bfc3834e0d2e4a594b4 *gd83-03-27 s2t10 Wharf Rat.flac
d716fa884f45f06a72cd5a921067f2ec *gd83-03-27 s2t11 Good Lovin'.flac
5bdf977ccc5c7849e26978c0ca9be7c0 *gd83-03-27 s2t12 US Blues.flac

Comments
Add Comment
Other Sources (comments)
AUD> MC> DAT> CDR Senn... (0) flac16/48kHz; Set 2... (0) flac16/48kHz; Set 2... (0) flac16; Source Info:... (0)
Date User Comment