Browse Collections Artists Sources   Search Dates

Add Show    List Management    Help


Grateful Dead 03/27/83
Irvine Meadows, Irvine, CA
Comments Add Comment    Source Collectors    Add to Collection    Add to Want List    History
Source # 142769 Other Sources
Entered by Matt Vernon
Checksums ffp , flac-md5
Disc Counts 0 / 0
Media Size
Date Circulated
Date Added
07/26/2018
07/26/2018
Source Summary flac16; Source Info: Master Audience Cassettes; Sennheiser 421 mics > unknown deck > Dat > CDR, Eac > Cool Edit > shntool > cdwav >shnv3 EAC >shn; Re-Mastered by Scott Clugston; This is a pitch corrected and re-mastered version of shnid 11261 
  Archive
Source Information - Download Text | Download Zip
Grateful Dead
Irvine Meadows Amphitheatre
Irvine, CA
Sunday March 27th, 1983

This is a pitch corrected and re-mastered version of shnid11261. Thanks to Paul and Ernie Dodd for the source. Thanks to Joe B. Jones for his help with the pitch correction

Source Info:
Master Audience Cassettes; Sennheiser 421 mics > unknown deck > Dat > CDR, Eac > Cool Edit > shntool > cdwav >shnv3
EAC >shn

Re-Mastered by Scott Clugston
July 2018

Set One:
s1t01 - Crowd
s1t02 - Shakedown Street
s1t03 - New Minglewood Blues
s1t04 - They Love Each Other
s1t05 - Cassidy
s1t06 - Loser
s1t07 - My Brother Esau >
s1t08 - Deal

Set Two:
s2t01 - Crowd
s2t02 - China Cat Sunflower >
s2t03 - I Know You Rider >
s2t04 - Samson & Delilah
s2t05 - He's Gone >
s2t06 - Truckin' >
s2t07 - Drums >
s2t08 - Space >
s2t09 - Throwing Stones >
s2t10 - Wharf Rat >
s2t11 - Good Lovin'
Encore
s2t12 - US Blues


    length     expanded size    cdr  WAVE problems  fmt   ratio  filename
     0:35.23        6228140 B   ---   --   ---xx   flac  0.5267  gd83-03-27 s1t01 Crowd.flac
    13:42.72      145170188 B   ---   --   ---xx   flac  0.6350  gd83-03-27 s1t02 Shakedown Street.flac
     8:04.12       85405868 B   ---   --   ---xx   flac  0.6336  gd83-03-27 s1t03 New Minglewood Blues.flac
     8:28.54       89738252 B   ---   --   ---xx   flac  0.6267  gd83-03-27 s1t04 They Love Each Other.flac
     5:37.47       59557388 B   ---   --   ---xx   flac  0.6373  gd83-03-27 s1t05 Cassidy.flac
     7:46.67       82360028 B   ---   --   ---xx   flac  0.6343  gd83-03-27 s1t06 Loser.flac
     7:04.19       74838332 B   ---   --   ---xx   flac  0.6450  gd83-03-27 s1t07 My Brother Esau.flac
     8:34.04       90679052 B   ---   --   ---xx   flac  0.6621  gd83-03-27 s1t08 Deal.flac
     0:16.03        2829500 B   ---   --   ---xx   flac  0.5656  gd83-03-27 s2t01 Crowd.flac
     6:49.71       72314636 B   ---   --   ---xx   flac  0.6555  gd83-03-27 s2t02 China Cat Sunflower.flac
     5:08.60       54472364 B   ---   --   ---xx   flac  0.6680  gd83-03-27 s2t03 I Know You Rider.flac
     8:35.30       90916604 B   ---   --   ---xx   flac  0.6607  gd83-03-27 s2t04 Samson & Delilah.flac
    12:07.43      128343980 B   ---   --   ---xx   flac  0.6467  gd83-03-27 s2t05 He's Gone.flac
     9:16.20       98125484 B   ---   --   ---xx   flac  0.6748  gd83-03-27 s2t06 Truckin'.flac
     2:18.58       24479660 B   ---   --   ---xx   flac  0.5880  gd83-03-27 s2t07 Drums.flac
     8:19.24       88080092 B   ---   --   ---xx   flac  0.5706  gd83-03-27 s2t08 Space.flac
     8:43.06       92271356 B   ---   --   ---xx   flac  0.6653  gd83-03-27 s2t09 Throwing Stones.flac
     9:15.05       97913804 B   ---   --   ---xx   flac  0.6468  gd83-03-27 s2t10 Wharf Rat.flac
     8:35.44       90949532 B   ---   --   ---xx   flac  0.6724  gd83-03-27 s2t11 Good Lovin'.flac
     5:08.51       54451196 B   ---   --   ---xx   flac  0.6656  gd83-03-27 s2t12 US Blues.flac
   144:28.38     1529125456 B                            0.6447  (20 files)


Show Checksums
ffp
gd83-03-27 s1t01 Crowd.flac:46ba9079284035bb97b4c96028667e28
gd83-03-27 s1t02 Shakedown Street.flac:3f3c7f764904b7386bf0828740d65505
gd83-03-27 s1t03 New Minglewood Blues.flac:da07873d2094e9ce3708ca9500e3c89d
gd83-03-27 s1t04 They Love Each Other.flac:2f6c8c72343ff0b794f40cc9b1a3328b
gd83-03-27 s1t05 Cassidy.flac:6591348156621af48c45af468cf26bb2
gd83-03-27 s1t06 Loser.flac:5d1dafa2a9d6698d4775419b822f78eb
gd83-03-27 s1t07 My Brother Esau.flac:4ead12ac5901d056189f25aeae421f4e
gd83-03-27 s1t08 Deal.flac:6db72732f34cd1bd60771592aebd120b
gd83-03-27 s2t01 Crowd.flac:8c85a5a6ce4862d010b73f29a6a93bb2
gd83-03-27 s2t02 China Cat Sunflower.flac:b5f75962f6171a4b1b5c4936ebde70f5
gd83-03-27 s2t03 I Know You Rider.flac:15191f9b022cd89eb7495a19a59e7e6a
gd83-03-27 s2t04 Samson & Delilah.flac:4d67458e4cc104cbfc45b9d6556f1252
gd83-03-27 s2t05 He's Gone.flac:cc065d2904e94d6070030d6804a6809d
gd83-03-27 s2t06 Truckin'.flac:2a2ec5175b34c41ca6b1509b0e3fe270
gd83-03-27 s2t07 Drums.flac:fa42212dbbc91b7bc41cb94baabcc909
gd83-03-27 s2t08 Space.flac:1ad89b64d50ea1ae6a54cd6bfd217432
gd83-03-27 s2t09 Throwing Stones.flac:ba6e07289529e00922db211d7c832d18
gd83-03-27 s2t10 Wharf Rat.flac:2c1c69e41b2d30e1685808e15e82f299
gd83-03-27 s2t11 Good Lovin'.flac:9a7ffbd40b1067a758edfc12bdd152c6
gd83-03-27 s2t12 US Blues.flac:26167cf02424f720872a2d223eeadf33
flac-md5
7cc6390890c65d9431f371c25f154941 *gd83-03-27 s1t01 Crowd.flac
3d5c08b956d689314ba928d77234507f *gd83-03-27 s1t02 Shakedown Street.flac
12df1a2d0d583b925ffa22536e8e3367 *gd83-03-27 s1t03 New Minglewood Blues.flac
ca8a8bd44119388484a02db433461350 *gd83-03-27 s1t04 They Love Each Other.flac
4f04053a0540b4100135f742cba1e55f *gd83-03-27 s1t05 Cassidy.flac
d2e7f21274a7e0a523c7be52596bfb1e *gd83-03-27 s1t06 Loser.flac
dd4f5dd891382e86690b673602338948 *gd83-03-27 s1t07 My Brother Esau.flac
b2e7d5ca5e8c28280c8d4454bdcacd72 *gd83-03-27 s1t08 Deal.flac
600a685622c24ecbb3e89a240b377443 *gd83-03-27 s2t01 Crowd.flac
a3c2008ba8cd2f8f7c20023262170d98 *gd83-03-27 s2t02 China Cat Sunflower.flac
cf2576dca264e8a0fa5d7796911d66ca *gd83-03-27 s2t03 I Know You Rider.flac
ada385a1c8ee6bf94aba65c45c1dc84f *gd83-03-27 s2t04 Samson & Delilah.flac
b3d19932047b7839915a25593bf7ca55 *gd83-03-27 s2t05 He's Gone.flac
85c0c15519b7badc7f184451ccc40137 *gd83-03-27 s2t06 Truckin'.flac
479d93c3557789cc796a33f3552718ab *gd83-03-27 s2t07 Drums.flac
e8b833528a70f8e62aada77bb0a26de5 *gd83-03-27 s2t08 Space.flac
e44151af335668c2249faf1d4e70ffbf *gd83-03-27 s2t09 Throwing Stones.flac
bfab571bb72dfe6bdb5106e2ba628012 *gd83-03-27 s2t10 Wharf Rat.flac
16e211706fdf117e62caa3573c1d331f *gd83-03-27 s2t11 Good Lovin'.flac
c82d41d150bdc55a87d95e353b5c3678 *gd83-03-27 s2t12 US Blues.flac

Comments
Add Comment
Other Sources (comments)
AUD> MC> DAT> CDR Senn... (0) flac16/48kHz; Set 2... (0) flac16/48kHz; Set 2... (0) flac16/48kHz;... (0)
Date User Comment