Browse Collections Artists Sources   Search Dates

Add Show    List Management    Help


Grateful Dead 10/27/73
Indianapolis State Fair Coliseum, Indianapolis, IN
Comments Add Comment    Source Collectors    Add to Collection    Add to Want List    History
Source # 142772 Other Sources
Entered by Matt Vernon
Checksums ffp , flac-md5
Disc Counts 0 / 0
Media Size
Date Circulated
Date Added
07/27/2018
07/27/2018
Source Summary flac16/48kHz; Source Info: Master Soundboard Reels > 2 cassette generations > Dat (16/48k)> Dat (16/48k); Transfer Info: Dat (Sony PCM-R500)> Apogee aes/ebu cable > Tascam DA-3000 (16/48k)> Adobe Audition 3.01 > TLH flac1648 
  Archive
Source Information - Download Text | Download Zip
Grateful Dead
State Fair Coliseum
Indianapolis, IN
Saturday October 27th, 1973

Source Info:
Master Soundboard Reels > 2 cassette generations > Dat (16/48k)> Dat (16/48k)

Transfer Info:
Dat (Sony PCM-R500)> Apogee aes/ebu cable > Tascam DA-3000 (16/48k)> Adobe Audition 3.01 > TLH flac1648

Notes:
- Thanks to Rob Eaton for the Dat
- Thanks to Charlie Miller for the transfer and coordinating this effort
- Thanks to Joe B. Jones for his help with the pitch correction
- Tape flip in "Big River" smoothed
- "Wharf Rat" cuts
- Channels corrected "He's Gone " thru "Wharf Rat"
- "Don't get rowdy, man, we're thinking"

Mastered by Scott Clugston
July 2018

Set Two:
t01 - Me & My Uncle
t02 - Bertha
t03 - Me & Bobby McGee
t04 - Tennessee Jed
t05 - Playin' In The Band >
t06 - Mississippi Halfstep-Uptown Toodeloo >
t07 - Big //River >
t08 - Playin' In The Band Reprise
t09 - He's Gone >
t10 - Truckin' >
t11 - Nobody's Fault But Mine Jam >
t12 - Wharf Rat //
      Stell Blue (missing)
      Sugar Magnolia (missing)


    length     expanded size    cdr  WAVE problems  fmt   ratio  filename
     2:52.360      33093164 B   cxx   --   ---xx   flac  0.5329  gd73-10-27 s2t01 Me & My Uncle.flac
     6:02.693      69637164 B   cxx   --   ---xx   flac  0.5160  gd73-10-27 s2t02 Bertha.flac
     5:37.360      64773164 B   cxx   --   ---xx   flac  0.4812  gd73-10-27 s2t03 Me & Bobby McGee.flac
     7:57.933      91763244 B   cxx   --   ---xx   flac  0.5159  gd73-10-27 s2t04 Tennessee Jed.flac
    10:39.040     122695724 B   cxx   --   ---xx   flac  0.4949  gd73-10-27 s2t05 Playin' In The Band.flac
     7:52.253      90672684 B   cxx   --   ---xx   flac  0.5143  gd73-10-27 s2t06 Mississippi Half-Step Uptown Toodeloo.flac
     4:24.707      50823724 B   cxx   --   ---xx   flac  0.5332  gd73-10-27 s2t07 Big River.flac
     9:01.920     104048684 B   cxx   --   ---xx   flac  0.5226  gd73-10-27 s2t08 Playin' In The Band Reprise.flac
    13:34.120     156311084 B   cxx   --   ---xx   flac  0.4646  gd73-10-27 s2t09 He's Gone.flac
     7:48.120      89879084 B   cxx   --   ---xx   flac  0.5135  gd73-10-27 s2t10 Truckin'.flac
     6:44.547      77673004 B   cxx   --   ---xx   flac  0.4735  gd73-10-27 s2t11 Nobody's Fault But Mine Jam.flac
     4:58.842      57377652 B   cxx   --   ---xx   flac  0.4410  gd73-10-27 s2t12 Wharf Rat.flac
    87:33.895    1008748376 B                            0.4974  (12 files)


Show Checksums
ffp
gd73-10-27 s2t01 Me & My Uncle.flac:a4991f738cad40efaf2b24e2cb9c9902
gd73-10-27 s2t02 Bertha.flac:307411c7b029ebe1af2e6cc7566d6cc0
gd73-10-27 s2t03 Me & Bobby McGee.flac:cd93fe18d2f52d0b91832e243c3fef7e
gd73-10-27 s2t04 Tennessee Jed.flac:dda633bfcb45e7e5316be79bce03f697
gd73-10-27 s2t05 Playin' In The Band.flac:c0ad7ed0290ae525fdf5e114c0d16da7
gd73-10-27 s2t06 Mississippi Half-Step Uptown Toodeloo.flac:1df08e6617d89851273f27afaea88714
gd73-10-27 s2t07 Big River.flac:0db0e880efb6f6b15bea9cce56dcf187
gd73-10-27 s2t08 Playin' In The Band Reprise.flac:edee9ad13dd2da4ca99bce8d36155ae9
gd73-10-27 s2t09 He's Gone.flac:8e3fc2c1e8da45f70d15232847ccfed6
gd73-10-27 s2t10 Truckin'.flac:a752200465d9f4c51776580a10f013d5
gd73-10-27 s2t11 Nobody's Fault But Mine Jam.flac:c3710caa76e7b6fa1df67674a496d354
gd73-10-27 s2t12 Wharf Rat.flac:61ace59b05a2c122b8ac44affaae432f
flac-md5
971ab9ace3bb35218f1f74284d3e0136 *gd73-10-27 s2t01 Me & My Uncle.flac
1dd46c334f6d714dce7789bffea6e8ee *gd73-10-27 s2t02 Bertha.flac
66b79d18b85fe1afcc5f9db8db1d53a6 *gd73-10-27 s2t03 Me & Bobby McGee.flac
23520c6c4696e45f4cc88f5b5dce8a2d *gd73-10-27 s2t04 Tennessee Jed.flac
333f51211e453de01d3f19e54d21d474 *gd73-10-27 s2t05 Playin' In The Band.flac
39a5df453e8ab8d0c50ebc566f01b480 *gd73-10-27 s2t06 Mississippi Half-Step Uptown Toodeloo.flac
50531f507ad3b295f002e987242c67a9 *gd73-10-27 s2t07 Big River.flac
71bfd1415869a40981ff379c9e9e638a *gd73-10-27 s2t08 Playin' In The Band Reprise.flac
a26467817866b8b7724ff40be4f54752 *gd73-10-27 s2t09 He's Gone.flac
e26a7ba641ba9c22018116d8278f0f0d *gd73-10-27 s2t10 Truckin'.flac
4578175f8e4492cbab41321c66bcdc7e *gd73-10-27 s2t11 Nobody's Fault But Mine Jam.flac
0bca5570c997b1e1ba90f395ee93e686 *gd73-10-27 s2t12 Wharf Rat.flac

Comments
Add Comment
Other Sources (comments)
Source: MSR > R > C > D >... (1) flac16; Unknown Mics... (0)
Date User Comment