Browse Collections Artists Sources   Search Dates

Add Show    List Management    Help


Phish 07/27/18
The Forum, Inglewood, CA
Comments Add Comment    Source Collectors    Add to Collection    Add to Want List    History
Source # 142796 Other Sources
Entered by Matt Vernon
Checksums ffp , flac-md5
Disc Counts 0 / 0
Media Size
Date Circulated
Date Added
07/29/2018
07/30/2018
Source Summary flac16 44.1khz Recording Info: Schoeps CMC6/MK4 > Lunatec V2 > Sound Devices 744T (24-bit/96k) > Samplitude Pro X3 Suite > FLAC/16. Recorded by Charlie Miller 
Source Information - Download Text | Download Zip
Phish - July 27, 2018
The Forum - Inglewood, CA

Recording Info:
Schoeps CMC6/MK4 > Lunatec V2 > Sound Devices 744T (24-bit/96k) >
Samplitude Pro X3 Suite > FLAC/16
(3 Discs Audio / 1 DVD FLAC)

Recorded by Charlie Miller
[email protected]
July 29, 2018

Notes:
-- Mic stand was 9ft high with mics aimed at stacks
-- I was set up at front right corner of sound booth

Set 1:
01 - Tuning
02 - Chalk Dust Torture
03 - Everything's Right
04 - Rift
05 - Wolfman's Brother
06 - How Many People Are You?
07 - Horn
08 - Water In The Sky
09 - Twenty Years Later
10 - Sand

Set 2:
11 - Tuning
12 - Blaze On
13 - Down With Disease
14 - Simple
15 - Ghost
16 - Bouncing Around The Room
17 - Mike's Song
18 - Slave To The Traffic Light

Encore:
19 - Encore Break
20 - Sleeping Monkey
21 - Weekapaug Groove


SHNTOOL OUTPUT:
length expanded size cdr WAVE problems fmt ratio filename
0:42.35 7491164 B --- -- ---xx flac 0.5544 01 Tuning.flac
8:43.08 92276060 B --- -- ---xx flac 0.5902 02 Chalk Dust Torture.flac
13:16.49 140529692 B --- -- ---xx flac 0.5878 03 Everything's Right.flac
6:34.42 69600428 B --- -- ---xx flac 0.5726 04 Rift.flac
14:28.49 153230492 B --- -- ---xx flac 0.5652 05 Wolfman's Brother.flac
7:15.53 76858700 B --- -- ---xx flac 0.5979 06 How Many People Are You.flac
3:56.12 41658668 B --- -- ---xx flac 0.5362 07 Horn.flac
3:28.10 36714764 B --- -- ---xx flac 0.5772 08 Water In The Sky.flac
9:30.00 100548044 B --- -- ---xx flac 0.5573 09 Twenty Years Later.flac
9:58.41 105583676 B --- -- ---xx flac 0.6015 10 Sand.flac
0:45.14 7970972 B --- -- ---xx flac 0.4515 11 Tuning.flac
10:49.51 114603596 B --- -- ---xx flac 0.5600 12 Blaze On.flac
14:06.34 149314412 B --- -- ---xx flac 0.5889 13 Down With Disease.flac
10:35.30 112084604 B --- -- ---xx flac 0.5779 14 Simple.flac
13:15.58 140374460 B --- -- ---xx flac 0.5893 15 Ghost.flac
3:41.68 39144380 B --- -- ---xx flac 0.5786 16 Bouncing Around The Room.flac
8:44.52 92555948 B --- -- ---xx flac 0.6005 17 Mike's Song.flac
9:15.24 97958492 B --- -- ---xx flac 0.5355 18 Slave To The Traffic Light.flac
2:33.06 27003356 B --- -- ---xx flac 0.4980 19 Encore Break.flac
4:31.39 47896172 B --- -- ---xx flac 0.5190 20 Sleeping Monkey.flac
8:18.61 87990716 B --- -- ---xx flac 0.5912 21 Weekapaug Groove.flac
164:31.61 1741388796 B 0.5748 (21 files)
Show Checksums
ffp
01 Tuning.flac:d1abfc4424526a036553bc3c6bd5fc9a
02 Chalk Dust Torture.flac:c268bac77c250e090e45d163b31f2916
03 Everything's Right.flac:d45ad309cfb1f3dc77478ac4e798f25d
04 Rift.flac:f5a8e6b8a62aced4a07994fc9216decd
05 Wolfman's Brother.flac:c71a1f8967ecdb58615171604f14d5ec
06 How Many People Are You.flac:a1fea12e322585e078c022f2522d5bc8
07 Horn.flac:044d044c1c9f159f7b2d83b07b831805
08 Water In The Sky.flac:c6867cb9834923e014ce43c2aff2d823
09 Twenty Years Later.flac:2f100a23b38d24c44c498a21683b75a6
10 Sand.flac:1b00398f1ae9ab5b7628993dfcd75e70
11 Tuning.flac:2ebeab992d0b00b7371a9818dbf57c7b
12 Blaze On.flac:578db01134e6c22ed9afabf9358b74fb
13 Down With Disease.flac:c065d307dc718079b69c72c4a1dbb2ad
14 Simple.flac:525237467bf293f11d21b0e1a0141d5b
15 Ghost.flac:8400254eca3665ac3f7a9b50fd0109b2
16 Bouncing Around The Room.flac:e0d768685be37ebe5fd1cefd4ee945d4
17 Mike's Song.flac:42a21621539cbcfad2e6b205c6ea60dd
18 Slave To The Traffic Light.flac:8b728977fb64c4366b296eaf5a544524
19 Encore Break.flac:1f0b2adb5be5ce35ec090f9d5c55dcdc
20 Sleeping Monkey.flac:792c910939a039713c2878e3dbd82b0b
21 Weekapaug Groove.flac:baa9d6d5e04919b44203b00f09e0795f
flac-md5
2af337140fa04b29a735b142ea8fa1cc *01 Tuning.flac
23a303284afae608f14f7ad1e9ce8310 *02 Chalk Dust Torture.flac
da0c89c8c60a5fe145ec4420a00640ca *03 Everything's Right.flac
8545c6a2783ca7d12047e6aafb7a39fb *04 Rift.flac
30831dc1a775c392f39c39458f5e438e *05 Wolfman's Brother.flac
744747dc7468e289549c35120d6fc9e6 *06 How Many People Are You.flac
4e35c267791e503fef4bf3d778a4d513 *07 Horn.flac
90b66cb73c6e32e04495f06c3cf38e34 *08 Water In The Sky.flac
155aa28db3a691cc9546e4139b51c2bd *09 Twenty Years Later.flac
eea1953530e6469924596e7e2945bf87 *10 Sand.flac
7a6c8a48cdbacf5baf77cae0fa346bd5 *11 Tuning.flac
df35874474755f89d2d74aa0f4133585 *12 Blaze On.flac
897db0582c2320e98f9bc9a547d685a4 *13 Down With Disease.flac
68a56cd0b6f6dca264c1d2ace06ee203 *14 Simple.flac
c10ead0cdb5bfddabe611db2dabf8783 *15 Ghost.flac
35088a2d9756c8be90be2079cbed64d8 *16 Bouncing Around The Room.flac
0469fc303c347022c119ceb4123c9d56 *17 Mike's Song.flac
9a19e7a00611ad9f7c793a55d900d3b3 *18 Slave To The Traffic Light.flac
fdce8fd8c4ca7518e9e7e6241b8a3be3 *19 Encore Break.flac
e5e4f1d2205acc69b15c55d2756d4378 *20 Sleeping Monkey.flac
649c72091607d9a86ee179069375b030 *21 Weekapaug Groove.flac

Comments
Add Comment
Other Sources (comments)
flac16 44.1khz ... (0) flac24 96khz... (0) flac16 44.1khz ... (0) flac16 44.1khz ... (0) flac16 44.1khz... (0) flac16 44.1khz ... (0)
Date User Comment