Browse Collections Artists Sources   Search Dates

Add Show    List Management    Help


Phish 07/27/18
The Forum, Inglewood, CA
Comments Add Comment    Source Collectors    Add to Collection    Add to Want List    History
Source # 142797 Other Sources
Entered by Matt Vernon
Checksums ffp , flac-md5
Disc Counts 0 / 0
Media Size
Date Circulated
Date Added
07/29/2018
07/30/2018
Source Summary flac24 96khz Recording Info: Schoeps CMC6/MK4 > Lunatec V2 > Sound Devices 744T (24-bit/96k) > Samplitude Pro X3 Suite > FLAC/24. Recorded by Charlie Miller 
Source Information - Download Text | Download Zip
Phish - July 27, 2018
The Forum - Inglewood, CA

Recording Info:
Schoeps CMC6/MK4 > Lunatec V2 > Sound Devices 744T (24-bit/96k) >
Samplitude Pro X3 Suite > FLAC/24
(1 DVD FLAC)

Recorded by Charlie Miller
[email protected]
July 29, 2018

Notes:
-- Mic stand was 9ft high with mics aimed at stacks
-- I was set up at front right corner of sound booth

Set 1:
01 - Tuning
02 - Chalk Dust Torture
03 - Everything's Right
04 - Rift
05 - Wolfman's Brother
06 - How Many People Are You?
07 - Horn
08 - Water In The Sky
09 - Twenty Years Later
10 - Sand

Set 2:
11 - Tuning
12 - Blaze On
13 - Down With Disease
14 - Simple
15 - Ghost
16 - Bouncing Around The Room
17 - Mike's Song
18 - Slave To The Traffic Light

Encore:
19 - Encore Break
20 - Sleeping Monkey
21 - Weekapaug Groove


SHNTOOL OUTPUT:
length expanded size cdr WAVE problems fmt ratio filename
0:42.472 24464186 B cxx -- ---xx flac 0.5795 01 Tuning.flac
8:43.107 301309460 B cxx -- ---xx flac 0.5892 02 Chalk Dust Torture.flac
13:16.658 458875028 B cxx -- ---xx flac 0.5865 03 Everything's Right.flac
6:34.560 227266538 B cxx -- ---xx flac 0.5819 04 Rift.flac
14:28.645 500339462 B cxx -- ---xx flac 0.5731 05 Wolfman's Brother.flac
7:15.714 250971260 B cxx -- ---xx flac 0.5906 06 How Many People Are You.flac
3:56.160 136028384 B cxx -- ---xx flac 0.5612 07 Horn.flac
3:28.134 119885036 B cxx -- ---xx flac 0.5833 08 Water In The Sky.flac
9:29.998 328319066 B cxx -- ---xx flac 0.5706 09 Twenty Years Later.flac
9:58.552 344765990 B cxx -- ---xx flac 0.5960 10 Sand.flac
0:45.182 26024840 B cxx -- ---xx flac 0.5073 11 Tuning.flac
10:49.681 374216318 B cxx -- ---xx flac 0.5701 12 Blaze On.flac
14:06.445 487552610 B cxx -- ---xx flac 0.5892 13 Down With Disease.flac
10:35.409 365995700 B cxx -- ---xx flac 0.5811 14 Simple.flac
13:15.768 458362682 B cxx -- ---xx flac 0.5878 15 Ghost.flac
3:41.907 127818644 B cxx -- ---xx flac 0.5851 16 Bouncing Around The Room.flac
8:44.700 302227232 B cxx -- ---xx flac 0.5912 17 Mike's Song.flac
9:15.319 319863572 B cxx -- ---xx flac 0.5592 18 Slave To The Traffic Light.flac
2:33.082 88175078 B cxx -- ---xx flac 0.5443 19 Encore Break.flac
4:31.512 156390770 B cxx -- ---xx flac 0.5505 20 Sleeping Monkey.flac
8:18.797 287306846 B cxx -- ---xx flac 0.5895 21 Weekapaug Groove.flac
164:31.802 5686158702 B 0.5802 (21 files)
Show Checksums
ffp
01 Tuning.flac:e487f690464a501e020c468ed4be8cef
02 Chalk Dust Torture.flac:32fc5d8a0da1c5d9f1ff31858487a3fe
03 Everything's Right.flac:0cc41c193403d7aa996d9297be7f859d
04 Rift.flac:3a1a1c64f644fa79b694fd5db96699fc
05 Wolfman's Brother.flac:e17de6493c52da5e1774692997e81324
06 How Many People Are You.flac:e3905568cae4e95976a68bb1c3ecb152
07 Horn.flac:50ff550b6861b8d59fd607dc59ece040
08 Water In The Sky.flac:6f156b33739d94c6117bc14a890ae5e3
09 Twenty Years Later.flac:f49590eed100f8da55039b8fed9dc165
10 Sand.flac:88e258f310251d9f6d9ced419d804aba
11 Tuning.flac:df63992f5644c22e7d8e55999029a36b
12 Blaze On.flac:3e57c762decaea7b93ba9a32ca531bbe
13 Down With Disease.flac:17b8cbbe495634d8ccd3b9bc894353b6
14 Simple.flac:d0db03854a2eeca8940fc267f2205294
15 Ghost.flac:c8aee5a4acdc9e3845f18b1d32a4e144
16 Bouncing Around The Room.flac:eca53bba859909028dd7286dcdb6ded1
17 Mike's Song.flac:25e6795142c3aeebfdf39127c718f9bb
18 Slave To The Traffic Light.flac:0d94f992d6dbd758150aafaac99552a9
19 Encore Break.flac:e5d41e4b3d2b06ed8c2d0502b566894e
20 Sleeping Monkey.flac:4da9c8510ff054200c00b2f9109bd107
21 Weekapaug Groove.flac:546aa22f4b1401d749d4b6ca597c67d6
flac-md5
aeb09f91731cfa2426ff88c939982edf *01 Tuning.flac
98ec64146abb7685b4b9e138bac8ffb3 *02 Chalk Dust Torture.flac
2fd5f645bb304784aaee74280811b4ef *03 Everything's Right.flac
4be87f68dbbc08af777e1772e3744622 *04 Rift.flac
ba66225addf6698513f67cd9f04f42e6 *05 Wolfman's Brother.flac
61ea515da2bf762b593a2ba84a3f07cd *06 How Many People Are You.flac
fc35c9467219802e9ecace54bd5e964f *07 Horn.flac
eea1aee848b6c88960baf23997116efc *08 Water In The Sky.flac
7d5e441672818de46fdeca7a725c6586 *09 Twenty Years Later.flac
1a6d9d40839cd31028843d40b13ff15f *10 Sand.flac
6795238a427da8f7138cf8c0933a6769 *11 Tuning.flac
2cc3f6a873308710ec24897dccc5a017 *12 Blaze On.flac
2a26c6623396b3158d0f476a8003e256 *13 Down With Disease.flac
fb71d08a9b080ed6a09934bf48384ac1 *14 Simple.flac
557ddd6e3ce4bbb3703fa650bc731fdd *15 Ghost.flac
9c2ac9b52eb8014acfbd1e9c7920217b *16 Bouncing Around The Room.flac
9dbfa38959448fcb57ba19926b29fbbb *17 Mike's Song.flac
c76de8cb7188c10d0faf5ab90dab76a8 *18 Slave To The Traffic Light.flac
59e74a2dbcfede0ecb86926c055c9d96 *19 Encore Break.flac
470faec5529f80f6cfd9d3862fab3f0d *20 Sleeping Monkey.flac
bce148385322c3ba3d43eff3d3bbd77a *21 Weekapaug Groove.flac

Comments
Add Comment
Other Sources (comments)
flac16 44.1khz ... (0) flac16 44.1khz ... (0) flac16 44.1khz ... (0) flac16 44.1khz ... (0) flac16 44.1khz... (0) flac16 44.1khz ... (0)
Date User Comment