Browse Collections Artists Sources   Search Dates

Add Show    List Management    Help


Grateful Dead 09/12/81
Greek Theatre, U. Of California, Berkeley, CA
Comments Add Comment    Source Collectors    Add to Collection    Add to Want List    History
Source # 142835 Other Sources
Entered by Matt Vernon
Checksums ffp , flac-md5
Disc Counts 0 / 0
Media Size
Date Circulated
Date Added
08/04/2018
08/04/2018
Source Summary flac24; Source Info: Jim Wise's Master (FOB) Audience Cassettes; Sennheiser 421 mics > Sony TC-D5 (Maxell UD-XLII); Transfer Info: Master Cassettes (Nakamichi Dragon)> Tascam DA-3000 (DSF 1-bit/5.6 MHz) > dBpoweramp (24-bit/96 kHz) > Adobe Audition 3.01 (24-bit/96 kHz) > TLH flac2496 
  Archive
Source Information - Download Text | Download Zip
Grateful Dead
Greek Theatre
University Of California
Berkeley, CA
Saturday September 12th, 1981

Source Info:
Jim Wise's Master (FOB) Audience Cassettes; Sennheiser 421 mics > Sony TC-D5 (Maxell UD-XLII)

Transfer Info:
Master Cassettes (Nakamichi Dragon)> Tascam DA-3000 (DSF 1-bit/5.6 MHz) > dBpoweramp (24-bit/96 kHz) > Adobe Audition 3.01 (24-bit/96 kHz) > TLH flac2496

Notes:
- Thanks to Jim Wise for recording the show and the fresh transcription of his FOB audience master
- Thanks to Charlie Miller for coordinating this effort
- Thanks to Joani Walker, Paul Scotton and Charlie Miller for the shnid95671 FOB Nakamichi 300 source which supplies a patch in the transition between the end of "Bird Song" thru the middle of the first verse of "Cassidy" (0:18 total), an 0:11 patch in "Drums", as well as the "Good Lovin'" encore in its entirety
- Patch source massaged slightly to better match primary source
- "Space" before "Drums"
- Noodle into NFA included in "Not Fade Away"
- Another very fine capture

Mastered by Scott Clugston
July 2018

Set One:
s1t01 - Crowd
s1t02 - Shakedown Street
s1t03 - Greatest Story Ever Told
s1t04 - Friend Of The Devil >
s1t05 - El Paso
s1t06 - Bird Song >
s1t07 - Cassidy
s1t08 - Tennessee Jed >
s1t09 - Looks Like Rain
s1t10 - China Cat Sunflower >
s1t11 - I Know You Rider

Set Two:
s2t01 - Crowd
s2t02 - Scarlet Begonias >
s2t03 - Fire On The Mountain
s2t04 - CC Rider
s2t05 - Estimated Prophet >
s2t06 - Eyes Of The World >
s2t07 - Jam > Space >
s2t08 - Drums >
s2t00 - Not Fade Away >
s2t10 - Wharf Rat >
s2t11 - Around & Around >
s2t12 - One More Saturday Night
Encore:
s2t13 - It's All Over Now, Baby Blue
s2t14 - "Hey Phil, what's happening"
s2t15 - Good Lovin'


    length     expanded size    cdr  WAVE problems  fmt   ratio  filename
     1:00.507      34851884 B   cxx   --   ---xx   flac  0.7010  gd81-09-12 s1t01 Crowd.flac
    13:50.000     478080044 B   cxx   --   ---xx   flac  0.7388  gd81-09-12 s1t02 Shakedown Street.flac
     3:52.627     133993004 B   cxx   --   ---xx   flac  0.7291  gd81-09-12 s1t03 Greatest Story Ever Told.flac
     8:36.107     297277484 B   cxx   --   ---xx   flac  0.7330  gd81-09-12 s1t04 Friend Of The Devil.flac
     5:18.720     183582764 B   cxx   --   ---xx   flac  0.7394  gd81-09-12 s1t05 El Paso.flac
    10:36.867     366835244 B   cxx   --   ---xx   flac  0.7397  gd81-09-12 s1t06 Bird Song.flac
     6:17.307     217328684 B   cxx   --   ---xx   flac  0.7336  gd81-09-12 s1t07 Cassidy.flac
     7:53.373     272663084 B   cxx   --   ---xx   flac  0.7312  gd81-09-12 s1t08 Tennessee Jed.flac
     8:53.533     307315244 B   cxx   --   ---xx   flac  0.7254  gd81-09-12 s1t09 Looks Like Rain.flac
     7:29.547     258938924 B   cxx   --   ---xx   flac  0.7361  gd81-09-12 s1t10 China Cat Sunflower.flac
     5:30.445     190336136 B   cxx   --   ---xx   flac  0.7388  gd81-09-12 s1t11 I Know You Rider.flac
     0:30.093      17333804 B   cxx   --   ---xx   flac  0.7298  gd81-09-12 s2t01 Crowd.flac
    11:39.600     402969644 B   cxx   --   ---xx   flac  0.7473  gd81-09-12 s2t02 Scarlet Begonias.flac
    13:37.413     470830124 B   cxx   --   ---xx   flac  0.7442  gd81-09-12 s2t03 Fire On The Mountain.flac
     9:37.880     332858924 B   cxx   --   ---xx   flac  0.7389  gd81-09-12 s2t04 CC Rider.flac
    10:54.787     377157164 B   cxx   --   ---xx   flac  0.7387  gd81-09-12 s2t05 Estimated Prophet.flac
    11:55.240     411978284 B   cxx   --   ---xx   flac  0.7442  gd81-09-12 s2t06 Eyes Of The World.flac
     7:38.200     263923244 B   cxx   --   ---xx   flac  0.7310  gd81-09-12 s2t07 Jam_Space.flac
     9:12.920     318481964 B   cxx   --   ---xx   flac  0.7005  gd81-09-12 s2t08 Drums.flac
    10:10.893     351874604 B   cxx   --   ---xx   flac  0.7282  gd81-09-12 s2t09 Not Fade Away.flac
     9:24.920     325393964 B   cxx   --   ---xx   flac  0.7292  gd81-09-12 s2t10 Wharf Rat.flac
     3:57.773     136957484 B   cxx   --   ---xx   flac  0.7376  gd81-09-12 s2t11 Around & Around.flac
     4:40.547     161594924 B   cxx   --   ---xx   flac  0.7388  gd81-09-12 s2t12 One More Saturday Night.flac
     7:12.973     249392684 B   cxx   --   ---xx   flac  0.7302  gd81-09-12 s2t13 It's All Over Now Baby Blue.flac
     2:16.533      78643244 B   cxx   --   ---xx   flac  0.6066  gd81-09-12 s2t14 Hey Phil, what's happening.flac
     8:16.818     286167404 B   cxx   --   ---xx   flac  0.6296  gd81-09-12 s2t15 Good Lovin'.flac
   200:25.623    6926759956 B                            0.7289  (26 files)


Show Checksums
ffp
gd81-09-12 s1t01 Crowd.flac:7feee26122d89df04a94100457df5935
gd81-09-12 s1t02 Shakedown Street.flac:6613994051047162461a7fbc4f002068
gd81-09-12 s1t03 Greatest Story Ever Told.flac:72cc61312ac716a35531f7845391ac41
gd81-09-12 s1t04 Friend Of The Devil.flac:71d8a8d64e29d39f3ed8953cee755e3f
gd81-09-12 s1t05 El Paso.flac:53b812ab9ee35d943ce30f28dbe440b5
gd81-09-12 s1t06 Bird Song.flac:a0163051a0ec2d788fe5fc4b5c7616c9
gd81-09-12 s1t07 Cassidy.flac:e2de1a20080554796a283e6e946669e1
gd81-09-12 s1t08 Tennessee Jed.flac:b9efad940141352ebbd6e8009a828149
gd81-09-12 s1t09 Looks Like Rain.flac:6fe618b6a6998bde5a13cb7438391a52
gd81-09-12 s1t10 China Cat Sunflower.flac:03f5d2ee3d9493bd03930402fb13017c
gd81-09-12 s1t11 I Know You Rider.flac:0dfd8f756ce747d71f5c727884064ada
gd81-09-12 s2t01 Crowd.flac:48c8a5d848ddec36cd5e039508d6bc84
gd81-09-12 s2t02 Scarlet Begonias.flac:d4868626c0c5b39e7d7c86db5bc4d9db
gd81-09-12 s2t03 Fire On The Mountain.flac:e0d2cc0ba79e110e09c5019c7c312920
gd81-09-12 s2t04 CC Rider.flac:77468b6aace099d094d24f95a65f4192
gd81-09-12 s2t05 Estimated Prophet.flac:61d5636ea3a41f2a4ffe4703fd37c40f
gd81-09-12 s2t06 Eyes Of The World.flac:d959e4cb074c01dbafeb140f57f2f530
gd81-09-12 s2t07 Jam_Space.flac:50b956bcfce957f35c7897dbdff8f77b
gd81-09-12 s2t08 Drums.flac:f7e9ef7618d425d717c978d05caa1312
gd81-09-12 s2t09 Not Fade Away.flac:b792e81fd0605c9ee669d55f671479c0
gd81-09-12 s2t10 Wharf Rat.flac:f4b403e860ce54a020a54b676ff6275b
gd81-09-12 s2t11 Around & Around.flac:32a52bdc056e74bdd38b6309b8af5ec7
gd81-09-12 s2t12 One More Saturday Night.flac:1df8e10fc621facdcc67b35e01ae417a
gd81-09-12 s2t13 It's All Over Now Baby Blue.flac:75acc51ca8559dbb25100687ba165256
gd81-09-12 s2t14 Hey Phil, what's happening.flac:f702284c9a49215e7426accfe48a26bb
gd81-09-12 s2t15 Good Lovin'.flac:d2421aa710a5e87c5f5e7f4f102f9697
flac-md5
48e5263310e29f3f57e96753475d9f78 *gd81-09-12 s1t01 Crowd.flac
e1fba58a66578ee8a846b26a67125176 *gd81-09-12 s1t02 Shakedown Street.flac
c4c963747350c7fda98dcb836755a420 *gd81-09-12 s1t03 Greatest Story Ever Told.flac
98621644bea18dd60865d0aa17070184 *gd81-09-12 s1t04 Friend Of The Devil.flac
b07a37ddc24263838abbfd1488d42138 *gd81-09-12 s1t05 El Paso.flac
ff2f04751afe5a3ead6bfdf029ee0394 *gd81-09-12 s1t06 Bird Song.flac
d977bbb6716ef9ed09db4cac136f5393 *gd81-09-12 s1t07 Cassidy.flac
6a11d1e205cc979819263c91152dc68a *gd81-09-12 s1t08 Tennessee Jed.flac
27ef21582268169ea9604351b703f85f *gd81-09-12 s1t09 Looks Like Rain.flac
58f37b44baf60c8d7da0b4dd4e1a3a4b *gd81-09-12 s1t10 China Cat Sunflower.flac
fb7e846438a5b58a643e4c2bfd0144a4 *gd81-09-12 s1t11 I Know You Rider.flac
dcb257ce6f897e94b0ea47179b9c3d12 *gd81-09-12 s2t01 Crowd.flac
99f22b7b26447d15ef080774947b50ef *gd81-09-12 s2t02 Scarlet Begonias.flac
3053c1a7ce117678f904586bb66031d0 *gd81-09-12 s2t03 Fire On The Mountain.flac
59ac93a10d25bc05c2a398c13b6ac0ad *gd81-09-12 s2t04 CC Rider.flac
6dfda8b458c6def41fc9a78601d4f603 *gd81-09-12 s2t05 Estimated Prophet.flac
0db6075dc3c0c75ead331eed06891448 *gd81-09-12 s2t06 Eyes Of The World.flac
83f830aaef6bdd6ac823771f64a04829 *gd81-09-12 s2t07 Jam_Space.flac
f6e1170dd9e245f95617ea8346be30ab *gd81-09-12 s2t08 Drums.flac
ba0e4af381b07a77f57aeea3dc09aa76 *gd81-09-12 s2t09 Not Fade Away.flac
2ff8187ddaefb84184d6a0486a332856 *gd81-09-12 s2t10 Wharf Rat.flac
c35950e2bc7b9b01d80037040324d2d9 *gd81-09-12 s2t11 Around & Around.flac
0538b8c04f72db9f6ad9ea341fb356c5 *gd81-09-12 s2t12 One More Saturday Night.flac
ce4382524b6e075254672b5f38672430 *gd81-09-12 s2t13 It's All Over Now Baby Blue.flac
ccd2debc426f31d78633306241185b3b *gd81-09-12 s2t14 Hey Phil, what's happening.flac
475de679d3e6ce1c749657c675a7f673 *gd81-09-12 s2t15 Good Lovin'.flac

Comments
Add Comment
Other Sources (comments)
Recording by Jim Wise.... (1) This is the same as shnid... (2) flac16; Recording by... (7) Recording by Jim Wise. FOB... (0) flac16; Source:... (0) flac16; Recording... (1) flac16; Recording... (2) flac16;Recording... (0) flac24; Recorded,... (1) flac16;Recorded,... (0) flac16/48kHz; Source... (0)
Date User Comment