Browse Collections Artists Sources   Search Dates

Add Show    List Management    Help


Grateful Dead 09/12/81
Greek Theatre, U. Of California, Berkeley, CA
Comments Add Comment    Source Collectors    Add to Collection    Add to Want List    History
Source # 142836 Other Sources
Entered by Matt Vernon
Checksums ffp , flac-md5
Disc Counts 0 / 0
Media Size
Date Circulated
Date Added
08/04/2018
08/04/2018
Source Summary flac16/48kHz; Source Info: Jim Wise's Master (FOB) Audience Cassettes; Sennheiser 421 mics > Sony TC-D5 (Maxell UD-XLII); Transfer Info: Master Cassettes (Nakamichi Dragon)> Tascam DA-3000 (DSF 1-bit/5.6 MHz) > dBpoweramp (24-bit/96 kHz) > Adobe Audition 3.01 (24-bit/96 kHz) > TLH flac2496; 24-bit > 16-bit via dBpoweramp 
  Archive
Source Information - Download Text | Download Zip
Grateful Dead
Greek Theatre
University Of California
Berkeley, CA
Saturday September 12th, 1981

This is a 16/48 fileset. 24-bit > 16-bit via dBpoweramp

Source Info:
Jim Wise's Master (FOB) Audience Cassettes; Sennheiser 421 mics > Sony TC-D5 (Maxell UD-XLII)

Transfer Info:
Master Cassettes (Nakamichi Dragon)> Tascam DA-3000 (DSF 1-bit/5.6 MHz) > dBpoweramp (24-bit/96 kHz) > Adobe Audition 3.01 (24-bit/96 kHz) > TLH flac2496

Notes:
- Thanks to Jim Wise for recording the show and the fresh transcription of his FOB audience master
- Thanks to Charlie Miller for coordinating this effort
- Thanks to Joani Walker, Paul Scotton and Charlie Miller for the shnid95671 FOB Nakamichi 300 source which supplies a patch in the transition between the end of "Bird Song" thru the middle of the first verse of "Cassidy" (0:18 total), an 0:11 patch in "Drums", as well as the "Good Lovin'" encore in its entirety
- Patch source massaged slightly to better match primary source
- "Space" before "Drums"
- Noodle into NFA included in "Not Fade Away"
- Another very fine capture

Mastered by Scott Clugston
July 2018

Set One:
s1t01 - Crowd
s1t02 - Shakedown Street
s1t03 - Greatest Story Ever Told
s1t04 - Friend Of The Devil >
s1t05 - El Paso
s1t06 - Bird Song >
s1t07 - Cassidy
s1t08 - Tennessee Jed >
s1t09 - Looks Like Rain
s1t10 - China Cat Sunflower >
s1t11 - I Know You Rider

Set Two:
s2t01 - Crowd
s2t02 - Scarlet Begonias >
s2t03 - Fire On The Mountain
s2t04 - CC Rider
s2t05 - Estimated Prophet >
s2t06 - Eyes Of The World >
s2t07 - Jam > Space >
s2t08 - Drums >
s2t00 - Not Fade Away >
s2t10 - Wharf Rat >
s2t11 - Around & Around >
s2t12 - One More Saturday Night
Encore:
s2t13 - It's All Over Now, Baby Blue
s2t14 - "Hey Phil, what's happening"
s2t15 - Good Lovin'



    length     expanded size    cdr  WAVE problems  fmt   ratio  filename
     1:00.507      11617324 B   cxx   --   ---xx   flac  0.5517  gd81-09-12 s1t01 Crowd.flac
    13:50.000     159360044 B   cxx   --   ---xx   flac  0.6409  gd81-09-12 s1t02 Shakedown Street.flac
     3:52.627      44664364 B   cxx   --   ---xx   flac  0.6321  gd81-09-12 s1t03 Greatest Story Ever Told.flac
     8:36.107      99092524 B   cxx   --   ---xx   flac  0.6264  gd81-09-12 s1t04 Friend Of The Devil.flac
     5:18.720      61194284 B   cxx   --   ---xx   flac  0.6460  gd81-09-12 s1t05 El Paso.flac
    10:36.867     122278444 B   cxx   --   ---xx   flac  0.6490  gd81-09-12 s1t06 Bird Song.flac
     6:17.307      72442924 B   cxx   --   ---xx   flac  0.6493  gd81-09-12 s1t07 Cassidy.flac
     7:53.373      90887724 B   cxx   --   ---xx   flac  0.6367  gd81-09-12 s1t08 Tennessee Jed.flac
     8:53.533     102438444 B   cxx   --   ---xx   flac  0.6187  gd81-09-12 s1t09 Looks Like Rain.flac
     7:29.547      86313004 B   cxx   --   ---xx   flac  0.6522  gd81-09-12 s1t10 China Cat Sunflower.flac
     5:30.445      63445408 B   cxx   --   ---xx   flac  0.6608  gd81-09-12 s1t11 I Know You Rider.flac
     0:30.093       5777964 B   cxx   --   ---xx   flac  0.6107  gd81-09-12 s2t01 Crowd.flac
    11:39.600     134323244 B   cxx   --   ---xx   flac  0.6643  gd81-09-12 s2t02 Scarlet Begonias.flac
    13:37.413     156943404 B   cxx   --   ---xx   flac  0.6549  gd81-09-12 s2t03 Fire On The Mountain.flac
     9:37.880     110953004 B   cxx   --   ---xx   flac  0.6389  gd81-09-12 s2t04 CC Rider.flac
    10:54.787     125719084 B   cxx   --   ---xx   flac  0.6432  gd81-09-12 s2t05 Estimated Prophet.flac
    11:55.240     137326124 B   cxx   --   ---xx   flac  0.6605  gd81-09-12 s2t06 Eyes Of The World.flac
     7:38.200      87974444 B   cxx   --   ---xx   flac  0.6194  gd81-09-12 s2t07 Jam_Space.flac
     9:12.920     106160684 B   cxx   --   ---xx   flac  0.5572  gd81-09-12 s2t08 Drums.flac
    10:10.893     117291564 B   cxx   --   ---xx   flac  0.6216  gd81-09-12 s2t09 Not Fade Away.flac
     9:24.920     108464684 B   cxx   --   ---xx   flac  0.6247  gd81-09-12 s2t10 Wharf Rat.flac
     3:57.773      45652524 B   cxx   --   ---xx   flac  0.6505  gd81-09-12 s2t11 Around & Around.flac
     4:40.547      53865004 B   cxx   --   ---xx   flac  0.6554  gd81-09-12 s2t12 One More Saturday Night.flac
     7:12.973      83130924 B   cxx   --   ---xx   flac  0.6408  gd81-09-12 s2t13 It's All Over Now Baby Blue.flac
     2:16.533      26214444 B   cxx   --   ---xx   flac  0.6357  gd81-09-12 s2t14 Hey Phil, what's happening.flac
     8:16.818      95389164 B   cxx   --   ---xx   flac  0.6645  gd81-09-12 s2t15 Good Lovin'.flac
   200:25.623    2308920748 B                            0.6388  (26 files)


Show Checksums
ffp
gd81-09-12 s1t01 Crowd.flac:b9b68091c44745358bb56c9b6cab20b1
gd81-09-12 s1t02 Shakedown Street.flac:5fe84c6d0c2dac6a07b3a40254c90b90
gd81-09-12 s1t03 Greatest Story Ever Told.flac:f3dd22c701f4f734d2a199e5f066c1ac
gd81-09-12 s1t04 Friend Of The Devil.flac:de2b48768593835d488ae055a8a4a17c
gd81-09-12 s1t05 El Paso.flac:19647777f9139dc5349031857a355a51
gd81-09-12 s1t06 Bird Song.flac:a3ce396fa1de58415a966bbb12fdb2c7
gd81-09-12 s1t07 Cassidy.flac:c88cce5ba4258be21cfcc14245d77b3c
gd81-09-12 s1t08 Tennessee Jed.flac:d59b02b92e3aef388271d560533d30d2
gd81-09-12 s1t09 Looks Like Rain.flac:edb5bb04ca4fd113dd43e41ed2a33670
gd81-09-12 s1t10 China Cat Sunflower.flac:7d8f5e7e03917dfab6d3af7339bfb816
gd81-09-12 s1t11 I Know You Rider.flac:f91b5ba06e2b35f26bcb73c1833eed2b
gd81-09-12 s2t01 Crowd.flac:79e2b2386c31bf08d85b4364fc2150e1
gd81-09-12 s2t02 Scarlet Begonias.flac:26fea9b92e47a96112bd3103d721f8e4
gd81-09-12 s2t03 Fire On The Mountain.flac:e65249041fe9294ed6f7178b36f1813f
gd81-09-12 s2t04 CC Rider.flac:cda20b32228374c1d9991b005187be9c
gd81-09-12 s2t05 Estimated Prophet.flac:4ea62e29f807a7dbb893867039339644
gd81-09-12 s2t06 Eyes Of The World.flac:746d54373189fde7a676f5004f4e7e4a
gd81-09-12 s2t07 Jam_Space.flac:486f86edc1227c41912081ce5e9c826f
gd81-09-12 s2t08 Drums.flac:7b4dd9177e0433706926bc3ea1f54968
gd81-09-12 s2t09 Not Fade Away.flac:b1e541c30d31350c4378ad24803db26b
gd81-09-12 s2t10 Wharf Rat.flac:a42fd03fca8a956e6103cb7956792761
gd81-09-12 s2t11 Around & Around.flac:2cd4fa6201df6520d3e1147e0b1444b6
gd81-09-12 s2t12 One More Saturday Night.flac:b2c15eb8501c4a19a411d1a0d7890195
gd81-09-12 s2t13 It's All Over Now Baby Blue.flac:d6201f77c6eff22d11b3d098b46e9e3c
gd81-09-12 s2t14 Hey Phil, what's happening.flac:9ef2079fe693b1b00fd3fdca8f05f5a6
gd81-09-12 s2t15 Good Lovin'.flac:97e6090a07edb0710f9c62437cd5e5ee
flac-md5
a9fb0a81afb1d94423a1f57fa7a0b20a *gd81-09-12 s1t01 Crowd.flac
103ae64dc07c1c534d1de3f4cc4ddb5a *gd81-09-12 s1t02 Shakedown Street.flac
6c111b33c68667532af22fc3c8400e6b *gd81-09-12 s1t03 Greatest Story Ever Told.flac
f6c7c5613d8b2d0e1c2d7fced56e43d5 *gd81-09-12 s1t04 Friend Of The Devil.flac
b301e8fbb1959fa7ada4fd3db1304b88 *gd81-09-12 s1t05 El Paso.flac
35c8a54773a41ce7e8bf088aaa5b3553 *gd81-09-12 s1t06 Bird Song.flac
5dec6bfc142f94f70c9264045d30c125 *gd81-09-12 s1t07 Cassidy.flac
1451203ea359f30e89b2775b7f8064a3 *gd81-09-12 s1t08 Tennessee Jed.flac
66993787e99d898ea9e4d7655f65f405 *gd81-09-12 s1t09 Looks Like Rain.flac
9eb60caa073193ff74216bced73a5986 *gd81-09-12 s1t10 China Cat Sunflower.flac
cd4333fb4202dec62eb906aa770696bd *gd81-09-12 s1t11 I Know You Rider.flac
7e7fb5d7c4e916391a20b85d729b9f6e *gd81-09-12 s2t01 Crowd.flac
5cf7525e97de325a902caf22d754d042 *gd81-09-12 s2t02 Scarlet Begonias.flac
2359e6a9655a4acf172f6f93d37e145d *gd81-09-12 s2t03 Fire On The Mountain.flac
57912e447d0e10849d5aba57a202e0e7 *gd81-09-12 s2t04 CC Rider.flac
aa7f4fe9f3a506afd1f287eaf2689a4d *gd81-09-12 s2t05 Estimated Prophet.flac
90bdcb33cdff2767ba892f1f6847ccab *gd81-09-12 s2t06 Eyes Of The World.flac
82faa82608604e0eb536992f15f6e3f6 *gd81-09-12 s2t07 Jam_Space.flac
f33723756150711c7dbc8b48ce68eae7 *gd81-09-12 s2t08 Drums.flac
407e36dae445fdd8f09f21deb1be4dd5 *gd81-09-12 s2t09 Not Fade Away.flac
e07f83bf9acc5dbab1d09a02817d63e1 *gd81-09-12 s2t10 Wharf Rat.flac
dc1d680fde1bd84bf4fac3f5307fd3fc *gd81-09-12 s2t11 Around & Around.flac
c1eac77877c2851320e51df1099de2c3 *gd81-09-12 s2t12 One More Saturday Night.flac
f65b77da7717f8d0f4242771ae209310 *gd81-09-12 s2t13 It's All Over Now Baby Blue.flac
c83f0b829946bde50a6b49d9db390b5e *gd81-09-12 s2t14 Hey Phil, what's happening.flac
279ab9507f36636e81def276379d0191 *gd81-09-12 s2t15 Good Lovin'.flac

Comments
Add Comment
Other Sources (comments)
Recording by Jim Wise.... (1) This is the same as shnid... (2) flac16; Recording by... (7) Recording by Jim Wise. FOB... (0) flac16; Source:... (0) flac16; Recording... (1) flac16; Recording... (2) flac16;Recording... (0) flac24; Recorded,... (1) flac16;Recorded,... (0) flac24; Source Info:... (0)
Date User Comment