Browse Collections Artists Sources   Search Dates

Add Show    List Management    Help


Garcia 02/10/81
Bushnell Auditorium, Hartford, CT
Comments Add Comment    Source Collectors    Add to Collection    Add to Want List    History
Source # 142837 Other Sources
Entered by Joe Jupille
Checksums md5 , ffp
Disc Counts 2 / 2
Media Size
Date Circulated
Date Added
08/01/2018
08/04/2018
Source Summary JGB; flac1648; George Sterry's Master Audience Cassettes; Unknown mics (possibly Jim Wise's Sennheiser 421's)> Sony TC-158(Maxell UDXL-II) > Master Cassettes (Nakamichi CR-7A) > Tascam DA-3000 (DSF 1-bit/5.6 MHz)> KORG AudioGate 4(.wav 24-bit/96k)> Adobe Audition 3.01 (.wav 24-bit/96k). 24-bit > 16-bit via dBpoweramp. 
Source Information - Download Text | Download Zip
Jerry Garcia Band
Bushnell Auditorium
Hartford, CT
Tuesday February 10th, 1981

This is a 16/48 fileset. 24-bit > 16-bit via dBpoweramp

Source Info:
George Sterry's Master Audience Cassettes; Unknown mics (possibly Jim Wise's Sennheiser 421's)> Sony TC-158(Maxell UDXL-II)

Transfer Info:
Master Cassettes (Nakamichi CR-7A) > Tascam DA-3000 (DSF 1-bit/5.6 MHz)> KORG AudioGate 4(.wav 24-bit/96k)> Adobe Audition 3.01 (.wav 24-bit/96k)> TLH flac2496

Notes:
- Thanks to George Sterry for the master cassette recording
- Thanks to Charlie Miller for the source, transfer and coordinating this effort
- Thanks to Jim Vita for the Nakamichi 500 source which supplies the crowd and first few notes of "Let It Rock" (0:08 total)
- Ebay tape liberation

Mastered by Scott Clugston
July 2018

Set One:
s1t01 - Crowd
s1t02 - I'll Take A Melody
s1t03 - It's No Use
s1t04 - They Love Each Other
s1t05 - Let It Rock
s1t06 - The Night They Drove Old Dixie Down
s1t07 - Tangled Up In Blue

Set Two:
s2t01 - Crowd
s2t02 - Mission In The Rain
s2t03 - Russian Lullaby
s2t04 - Harder They Come
s2t05 - Dear Prudence
s2t06 - Deal >
s2t07 - Midnight Moonlight


    length     expanded size    cdr  WAVE problems  fmt   ratio  filename
     1:31.600      17587244 B   cxx   --   ---xx   flac  0.5495  jgb81-02-10 s1t01 Crowd.flac
    12:46.013     147074604 B   cxx   --   ---xx   flac  0.6040  jgb81-02-10 s1t02 I'll take A Melody.flac
    10:24.520     119907884 B   cxx   --   ---xx   flac  0.6140  jgb81-02-10 s1t03 It's No Use.flac
     8:44.147     100636204 B   cxx   --   ---xx   flac  0.5938  jgb81-02-10 s1t04 They Love Each Other.flac
     8:22.933      96563244 B   cxx   --   ---xx   flac  0.6268  jgb81-02-10 s1t05 Let It Rock.flac
     8:48.893     101547564 B   cxx   --   ---xx   flac  0.5918  jgb81-02-10 s1t06 The Night They Drove Old Dixie Down.flac
    10:16.787     118423072 B   cxx   --   ---xx   flac  0.6298  jgb81-02-10 s1t07 Tangled Up In Blue.flac
     0:28.560       5483564 B   cxx   --   ---xx   flac  0.5583  jgb81-02-10 s2t01 Crowd.flac
    11:10.920     128816684 B   cxx   --   ---xx   flac  0.6082  jgb81-02-10 s2t02 Mission In The Rain.flac
    15:21.880     177001004 B   cxx   --   ---xx   flac  0.5819  jgb81-02-10 s2t03 Russian Lullaby.flac
    14:36.200     168230444 B   cxx   --   ---xx   flac  0.6069  jgb81-02-10 s2t04 Harder They Come.flac
    13:16.067     152844844 B   cxx   --   ---xx   flac  0.6090  jgb81-02-10 s2t05 Dear Prudence.flac
     7:03.480      81308204 B   cxx   --   ---xx   flac  0.6320  jgb81-02-10 s2t06 Deal.flac
     8:09.815      94044444 B   cxx   --   ---xx   flac  0.6166  jgb81-02-10 s2t07 Midnight Moonlight.flac
   131:01.815    1509469004 B                            0.6068  (14 files)

Show Checksums
md5
a886c8b1224d675bb7f9c0bcf0fc7750 *jgb81-02-10 s1t01 Crowd.flac
d972e6c9fe8938f7d0c52d69a0dd5faa *jgb81-02-10 s1t02 I'll take A Melody.flac
b38dc6739408a7c2c6802fb881fbab52 *jgb81-02-10 s1t03 It's No Use.flac
970fe1b1c9e197af34ee1ce7f5179bb7 *jgb81-02-10 s1t04 They Love Each Other.flac
213bcefd4ff0740b10d6272503c2edc1 *jgb81-02-10 s1t05 Let It Rock.flac
12d509e1e681fed2b8b6dcbd749c104b *jgb81-02-10 s1t06 The Night They Drove Old Dixie Down.flac
7a1f9e9a1aa4f0baeae01321b80cdfa4 *jgb81-02-10 s1t07 Tangled Up In Blue.flac
0bc44cdd9e3a02216d5d04d6e1c8cd6a *jgb81-02-10 s2t01 Crowd.flac
b4f54867ad5015c6b21b4d143dbb8af5 *jgb81-02-10 s2t02 Mission In The Rain.flac
24349140b30570cb3e6c254683606bdf *jgb81-02-10 s2t03 Russian Lullaby.flac
d168df9c280abd4a3660c0b94722d484 *jgb81-02-10 s2t04 Harder They Come.flac
e5a8e669e5e55173a9dcc50725b2b478 *jgb81-02-10 s2t05 Dear Prudence.flac
c730ca3cdf3b25067409f352337a738e *jgb81-02-10 s2t06 Deal.flac
73adc861c8443c5bf7b67e6d6b6a073d *jgb81-02-10 s2t07 Midnight Moonlight.flac
ffp
jgb81-02-10 s1t01 Crowd.flac:c571409a14a976926184f74572e99634
jgb81-02-10 s1t02 I'll take A Melody.flac:5c0f2609054ba9be2d8d93c4cd0e8fc1
jgb81-02-10 s1t03 It's No Use.flac:7ac0189678a5d1eec5e96b6070d0f618
jgb81-02-10 s1t04 They Love Each Other.flac:005bcffc0447d04d32bdf830158682ab
jgb81-02-10 s1t05 Let It Rock.flac:e541df3916545942c07835207b92a9be
jgb81-02-10 s1t06 The Night They Drove Old Dixie Down.flac:8a0938baa602fc2df8ae5ad345983858
jgb81-02-10 s1t07 Tangled Up In Blue.flac:b26ca89d8f10d7ef746e411f60e40d9e
jgb81-02-10 s2t01 Crowd.flac:dc73ac901759c579cd1965f84be17ee6
jgb81-02-10 s2t02 Mission In The Rain.flac:4cae8421e2211d6fcb8ed2aadc7d22e2
jgb81-02-10 s2t03 Russian Lullaby.flac:2a40194844a8d387ebe931baacd26516
jgb81-02-10 s2t04 Harder They Come.flac:8717c800704e2dacb5aec10066aec695
jgb81-02-10 s2t05 Dear Prudence.flac:4695f163f56710f30db04179c015cd32
jgb81-02-10 s2t06 Deal.flac:156aca384c0b7839c32ddde4afd11b66
jgb81-02-10 s2t07 Midnight Moonlight.flac:7f2a4dcc73976d08a87680cc4adcde73

Comments
Add Comment
Other Sources (comments)
Source: MAC(Senn... (0) JGB: Jim Wise Master... (0) JGB: Jim Vita's Nakamichi... (0)
Date User Comment