Browse Collections Artists Sources   Search Dates

Add Show    List Management    Help


Garcia 11/12/81
Symphony Hall, Springfield, MA
Comments Add Comment    Source Collectors    Add to Collection    Add to Want List    History
Source # 142838 Other Sources
Entered by Joe Jupille
Checksums ffp , md5
Disc Counts 1 / 1
Media Size
Date Circulated
Date Added
08/01/2018
08/04/2018
Source Summary JGB; flac1648; s2; George Sterry's Master Audience Cassettes; Unknown mics > Sony TC-158(TDK-SA90) > Master Cassettes (Nakamichi CR-7A) > Tascam DA-3000 (DSF 1-bit/5.6 MHz)> KORG AudioGate 4(.wav 24-bit/96k)> Adobe Audition 3.01 (.wav 24-bit/96k). 24-bit > 16-bit via dBpoweramp. 
Source Information - Download Text | Download Zip
Jerry Garcia Band
Symphony Hall
Springfield, MA
Thursday November 12th, 1981

This is a 16/48 fileset. 24-bit > 16-bit via dBpoweramp

Source Info:
George Sterry's Master Audience Cassettes; Unknown mics > Sony TC-158(TDK-SA90)

Transfer Info:
Master Cassettes (Nakamichi CR-7A) > Tascam DA-3000 (DSF 1-bit/5.6 MHz)> KORG AudioGate 4(.wav 24-bit/96k)> Adobe Audition 3.01 (.wav 24-bit/96k)> TLH flac2496

Notes:
- Thanks to George Sterry for the master cassette recording
- Thanks to David Beckwith for liberating the tapes from eBay
- Thanks to Charlie Miller for the transfer and coordinating this effort
- Left channel slightly muffled for the first 0:15 of "Tangled Up In Blue"
- Originally scheduled for the 11th, re-scheduled for the 12th due to an illness in the band

Mastered by Scott Clugston
August 2018

Set Two:
s2txx - The Way You Do The Things You Do (missing)
s2txx - Second That Emotion (missing)
s2t01 - Russian Lullaby
s2t02 - Mystery Train
s2t03 - The Night They Drove Old Dixie Down >
s2t04 - Sitting in Limbo >
s2t05 - Tangled Up In Blue
Encore:
s2t06 - How Sweet It Is


    length     expanded size    cdr  WAVE problems  fmt   ratio  filename
    12:34.867     144934444 B   cxx   --   ---xx   flac  0.6234  jgb81-11-12 s2t01 Russian Lullaby.flac
     9:42.800     111897644 B   cxx   --   ---xx   flac  0.6508  jgb81-11-12 s2t02 Mystery Train.flac
     8:41.120     100055084 B   cxx   --   ---xx   flac  0.6286  jgb81-11-12 s2t03 The Night They Drove Old Dixie Down.flac
    10:17.307     118522924 B   cxx   --   ---xx   flac  0.6318  jgb81-11-12 s2t04 Sitting In Limbo.flac
    12:21.560     142379564 B   cxx   --   ---xx   flac  0.6626  jgb81-11-12 s2t05 Tangled Up In Blue.flac
     7:38.655      88061736 B   cxx   --   ---xx   flac  0.6532  jgb81-11-12 s2t06 How Sweet It Is.flac
    61:16.308     705851396 B                            0.6415  (6 files)

Show Checksums
ffp
jgb81-11-12 s2t01 Russian Lullaby.flac:a20eea9b4ffa054711261233c42d5426
jgb81-11-12 s2t02 Mystery Train.flac:640312680d0247c25052cba29fbabf6c
jgb81-11-12 s2t03 The Night They Drove Old Dixie Down.flac:6ecd9499f0595008287553aa14a3b5fc
jgb81-11-12 s2t04 Sitting In Limbo.flac:83b946010560def317205bf71cf00e7b
jgb81-11-12 s2t05 Tangled Up In Blue.flac:89e57aa8fb0919496c801cdf08ce865b
jgb81-11-12 s2t06 How Sweet It Is.flac:9ba434e07e9b0888374e86d00b0a9c89
md5
19c6a5b41f2b7fdbe3083d626c88bfaa *jgb81-11-12 s2t01 Russian Lullaby.flac
e9dd2a59f51ac265c66193d1b65b7abb *jgb81-11-12 s2t02 Mystery Train.flac
0e9d8112dc0b5d0abf8425958aef9741 *jgb81-11-12 s2t03 The Night They Drove Old Dixie Down.flac
9545fe3d6363ddb0021eea5d86a70d1d *jgb81-11-12 s2t04 Sitting In Limbo.flac
463bcd4019546998f4e8e1b6575d71af *jgb81-11-12 s2t05 Tangled Up In Blue.flac
bb9e698cf8840d5e330bd1099fafff96 *jgb81-11-12 s2t06 How Sweet It Is.flac

Comments
Add Comment
Other Sources (comments)
Jerry Garcia Band. AUD:C... (0)
Date User Comment