Browse Collections Artists Sources   Search Dates

Add Show    List Management    Help


Grateful Dead 06/07/80
Folsom Field, U. of Colorado, Boulder, CO
Comments Add Comment    Source Collectors    Add to Collection    Add to Want List    History
Source # 142841 Other Sources
Entered by Matt Vernon
Checksums ffp , flac-md5
Disc Counts 0 / 0
Media Size
Date Circulated
Date Added
08/10/2018
08/11/2018
Source Summary flac24; Set 1 Recording Info: George Sterry's Master Audience Cassette; Unknown mics > Sony TC-158SD (Maxell UDXLII-90); Transfer Info: Master Cassette (Nakamichi CR-7A) > Tascam DA-3000 (DSF 1-bit/5.6 MHz)> KORG AudioGate 4(.wav 24-bit/96k)> Adobe Audition 3.01 (.wav 24-bit/96k)> TLH flac2496 
  Archive
Source Information - Download Text | Download Zip
Grateful Dead
Folsom Field
University of Colorado
Boulder, CO
Saturday June 7th, 1980

Recording Info:
George Sterry's Master Audience Cassette; Unknown mics > Sony TC-158SD (Maxell UDXLII-90)

Transfer Info:
Master Cassette (Nakamichi CR-7A) > Tascam DA-3000 (DSF 1-bit/5.6 MHz)> KORG AudioGate 4(.wav 24-bit/96k)> Adobe Audition 3.01 (.wav 24-bit/96k)> TLH flac2496

Notes:
- Thanks to George Sterry for the master cassette recording
- Thanks to David Beckwith for liberating the tapes from eBay
- Thanks to Charlie Miller for the transfer and coordinating this effort
- Thanks to Joe B. Jones for verifying the pitch

Mastered by Scott Clugston
August 2018

Set One:
s1t01 - Intro
s1t02 - Jack Straw
s1t03 - Friend Of The Devil >
s1t04 - El Paso >
s1t05 - Mama Tried
s1t06 - Ramble On Rose
s1t07 - Passenger
s1t08 - Far From Me
s1t09 - New Minglewood Blues
s1t10 - Loser
s1t11 - Feel Like A Stranger
s1t12 - Deal


    length     expanded size    cdr  WAVE problems  fmt   ratio  filename
     0:34.200      19699244 B   cxx   --   ---xx   flac  0.6775  gd80-06-07 s1t01 Intro.flac
     5:58.107     206269484 B   cxx   --   ---xx   flac  0.6878  gd80-06-07 s1t02 Jack Straw.flac
     8:26.280     291617324 B   cxx   --   ---xx   flac  0.6839  gd80-06-07 s1t03 Friend Of The Devil.flac
     4:05.707     141527084 B   cxx   --   ---xx   flac  0.6915  gd80-06-07 s1t04 El Paso.flac
     2:45.040      95063084 B   cxx   --   ---xx   flac  0.6922  gd80-06-07 s1t05 Mama Tried.flac
     7:53.960     273001004 B   cxx   --   ---xx   flac  0.6807  gd80-06-07 s1t06 Ramble On Rose.flac
     5:38.373     194903084 B   cxx   --   ---xx   flac  0.6839  gd80-06-07 s1t07 Passenger.flac
     4:11.200     144691244 B   cxx   --   ---xx   flac  0.6849  gd80-06-07 s1t08 Far From Me.flac
     8:06.360     280143404 B   cxx   --   ---xx   flac  0.6858  gd80-06-07 s1t09 New Minglewood Blues.flac
     7:58.253     275473964 B   cxx   --   ---xx   flac  0.6810  gd80-06-07 s1t10 Loser.flac
     7:52.747     272302124 B   cxx   --   ---xx   flac  0.6874  gd80-06-07 s1t11 Feel Like A Stranger.flac
     5:06.662     176637404 B   cxx   --   ---xx   flac  0.6922  gd80-06-07 s1t12 Deal.flac
    68:36.889    2371328448 B                            0.6856  (12 files)


Show Checksums
ffp
gd80-06-07 s1t01 Intro.flac:c30aaa6a4d1862dd33d2713d741f7f1a
gd80-06-07 s1t02 Jack Straw.flac:f9841b754baa9295e2e948a7d02e6de7
gd80-06-07 s1t03 Friend Of The Devil.flac:e1006f8017d8ef9879165446dcda2283
gd80-06-07 s1t04 El Paso.flac:fadde6884633b70f37d4bdca444f6d03
gd80-06-07 s1t05 Mama Tried.flac:ee98c817077f44e32c388dcf65cc630f
gd80-06-07 s1t06 Ramble On Rose.flac:66bb025aedd098e27b54345ee18481fc
gd80-06-07 s1t07 Passenger.flac:ecde7cbb9ea4bbb0396cbeda2b703b47
gd80-06-07 s1t08 Far From Me.flac:fde51a3fc60e404de74fce82315157af
gd80-06-07 s1t09 New Minglewood Blues.flac:46e068fa1cdab59531e4a8957bc5ec3d
gd80-06-07 s1t10 Loser.flac:9b711eaa044d6543b94be55b3f742438
gd80-06-07 s1t11 Feel Like A Stranger.flac:08a52d4697120e2f8ef0fd08ec559db1
gd80-06-07 s1t12 Deal.flac:436a1d5f265d225eb7a679d603d2fb0b
flac-md5
46fb801f8e813e893d21172921d8fed1 *gd80-06-07 s1t01 Intro.flac
2ebeeae887b42055373e5fcff99c9eab *gd80-06-07 s1t02 Jack Straw.flac
0706845a05caaebe731e1d26175b0bab *gd80-06-07 s1t03 Friend Of The Devil.flac
a7e9b2ad582bed0a7ae981d256f2dde7 *gd80-06-07 s1t04 El Paso.flac
c51f99a6aa13c44a6f3bd0a236d29675 *gd80-06-07 s1t05 Mama Tried.flac
66b23e1a9313b69d0dbbcbbb0b6afe96 *gd80-06-07 s1t06 Ramble On Rose.flac
d3543a0767b543cba192c64c14cdac5c *gd80-06-07 s1t07 Passenger.flac
a4cabf62d8f7bfd13502b153593d3b3c *gd80-06-07 s1t08 Far From Me.flac
5de828360b87c646803c8ce5b3d07051 *gd80-06-07 s1t09 New Minglewood Blues.flac
b0e9c1e6760b842ffdee9e38892867b8 *gd80-06-07 s1t10 Loser.flac
301b1220c2b5492e384d171a50543fff *gd80-06-07 s1t11 Feel Like A Stranger.flac
adfc9e1f47445745a18a64ac9b6b8d08 *gd80-06-07 s1t12 Deal.flac

Comments
Add Comment
Other Sources (comments)
Aud>?>CD; Distortion... (0) flac16; mac > 1st... (0) flac16;Recording by... (0) flac16; Recorded by... (0) flac16; Source: Sony... (0) flac16; Recorded By... (0) flac16/48kHz; Set 1... (0)
Date User Comment