Browse Collections Artists Sources   Search Dates

Add Show    List Management    Help


Grateful Dead 06/07/80
Folsom Field, U. of Colorado, Boulder, CO
Comments Add Comment    Source Collectors    Add to Collection    Add to Want List    History
Source # 142842 Other Sources
Entered by Matt Vernon
Checksums ffp , flac-md5
Disc Counts 0 / 0
Media Size
Date Circulated
Date Added
08/10/2018
08/11/2018
Source Summary flac16/48kHz; Set 1 Recording Info: George Sterry's Master Audience Cassette; Unknown mics > Sony TC-158SD (Maxell UDXLII-90); Transfer Info: Master Cassette (Nakamichi CR-7A) > Tascam DA-3000 (DSF 1-bit/5.6 MHz)> KORG AudioGate 4(.wav 24-bit/96k)> Adobe Audition 3.01 (.wav 24-bit/96k)> TLH flac2496; 24-bit > 16-bit via dBpoweramp 
  Archive
Source Information - Download Text | Download Zip
Grateful Dead
Folsom Field
University of Colorado
Boulder, CO
Saturday June 7th, 1980

This is a 16/48 fileset. 24-bit > 16-bit via dBpoweramp

Recording Info:
George Sterry's Master Audience Cassette; Unknown mics > Sony TC-158SD (Maxell UDXLII-90)

Transfer Info:
Master Cassette (Nakamichi CR-7A) > Tascam DA-3000 (DSF 1-bit/5.6 MHz)> KORG AudioGate 4(.wav 24-bit/96k)> Adobe Audition 3.01 (.wav 24-bit/96k)> TLH flac2496

Notes:
- Thanks to George Sterry for the master cassette recording
- Thanks to David Beckwith for liberating the tapes from eBay
- Thanks to Charlie Miller for the transfer and coordinating this effort
- Thanks to Joe B. Jones for verifying the pitch

Mastered by Scott Clugston
August 2018

Set One:
s1t01 - Intro
s1t02 - Jack Straw
s1t03 - Friend Of The Devil >
s1t04 - El Paso >
s1t05 - Mama Tried
s1t06 - Ramble On Rose
s1t07 - Passenger
s1t08 - Far From Me
s1t09 - New Minglewood Blues
s1t10 - Loser
s1t11 - Feel Like A Stranger >
s1t12 - Deal


    length     expanded size    cdr  WAVE problems  fmt   ratio  filename
     0:34.200       6566444 B   cxx   --   ---xx   flac  0.5901  gd80-06-07 s1t01 Intro.flac
     5:58.107      68756524 B   cxx   --   ---xx   flac  0.6004  gd80-06-07 s1t02 Jack Straw.flac
     8:26.280      97205804 B   cxx   --   ---xx   flac  0.5917  gd80-06-07 s1t03 Friend Of The Devil.flac
     4:05.707      47175724 B   cxx   --   ---xx   flac  0.6100  gd80-06-07 s1t04 El Paso.flac
     2:45.040      31687724 B   cxx   --   ---xx   flac  0.6247  gd80-06-07 s1t05 Mama Tried.flac
     7:53.960      91000364 B   cxx   --   ---xx   flac  0.5913  gd80-06-07 s1t06 Ramble On Rose.flac
     5:38.373      64967724 B   cxx   --   ---xx   flac  0.6048  gd80-06-07 s1t07 Passenger.flac
     4:11.200      48230444 B   cxx   --   ---xx   flac  0.6075  gd80-06-07 s1t08 Far From Me.flac
     8:06.360      93381164 B   cxx   --   ---xx   flac  0.6095  gd80-06-07 s1t09 New Minglewood Blues.flac
     7:58.253      91824684 B   cxx   --   ---xx   flac  0.5933  gd80-06-07 s1t10 Loser.flac
     7:52.747      90767404 B   cxx   --   ---xx   flac  0.6109  gd80-06-07 s1t11 Feel Like A Stranger.flac
     5:06.662      58879164 B   cxx   --   ---xx   flac  0.6248  gd80-06-07 s1t12 Deal.flac
    68:36.889     790443168 B                            0.6038  (12 files)


Show Checksums
ffp
gd80-06-07 s1t01 Intro.flac:f4c2701ed63a492f2b6fdce359a33bea
gd80-06-07 s1t02 Jack Straw.flac:44df3dc875b22e251cac2c8810c70347
gd80-06-07 s1t03 Friend Of The Devil.flac:b16109a4ba2a0c75bbbbf8cf4dbc7ae1
gd80-06-07 s1t04 El Paso.flac:ebb542dc9f6be6260a2fa4a2cc705f07
gd80-06-07 s1t05 Mama Tried.flac:6451afdee111e244dab42f4081a0d21f
gd80-06-07 s1t06 Ramble On Rose.flac:f4b54350f9ccc0b0a507144b2f6bbcb5
gd80-06-07 s1t07 Passenger.flac:eade0aea704dc7e4ca0a19bf67ba9597
gd80-06-07 s1t08 Far From Me.flac:4cb7d40b348cd073a2a304513cc0557f
gd80-06-07 s1t09 New Minglewood Blues.flac:2cd8e139402a7c3c95b14e06b2629c65
gd80-06-07 s1t10 Loser.flac:c341bdb24f9144922a466a4208b3c48b
gd80-06-07 s1t11 Feel Like A Stranger.flac:39363f26f2415ff33e3d78ee4389f70a
gd80-06-07 s1t12 Deal.flac:e752e4b49e5765de35743986862f7c04
flac-md5
5e4cfd52248348ea2c3d1b76908a1e3c *gd80-06-07 s1t01 Intro.flac
f9b47b4bb63e2d6645673cc2d3c65e96 *gd80-06-07 s1t02 Jack Straw.flac
9090705d5e08e95d8cfb3f1fe98e35e0 *gd80-06-07 s1t03 Friend Of The Devil.flac
aef7b3c3eefb6bb33875020a6b50b038 *gd80-06-07 s1t04 El Paso.flac
05344b22437966e685a88128ec0e80be *gd80-06-07 s1t05 Mama Tried.flac
fbbe40a52478ffa50c93cc8178a5d206 *gd80-06-07 s1t06 Ramble On Rose.flac
6c050d88083f014c6f70b7894b59b844 *gd80-06-07 s1t07 Passenger.flac
dd2e14b90865a5765a89848aff753406 *gd80-06-07 s1t08 Far From Me.flac
501d2b175be1bb745dc4d2262ccd7546 *gd80-06-07 s1t09 New Minglewood Blues.flac
1d7624578e2f7600688d7eb26d5c6b04 *gd80-06-07 s1t10 Loser.flac
3e141dbcc1df8b8062a9b14e009762bb *gd80-06-07 s1t11 Feel Like A Stranger.flac
b7c966ecc9cb64b90d24855ed7e3885b *gd80-06-07 s1t12 Deal.flac

Comments
Add Comment
Other Sources (comments)
Aud>?>CD; Distortion... (0) flac16; mac > 1st... (0) flac16;Recording by... (0) flac16; Recorded by... (0) flac16; Source: Sony... (0) flac16; Recorded By... (0) flac24; Set 1... (0)
Date User Comment