Browse Collections Artists Sources   Search Dates

Add Show    List Management    Help


Grateful Dead 06/08/80
Folsom Field, U. of Colorado, Boulder, CO
Comments Add Comment    Source Collectors    Add to Collection    Add to Want List    History
Source # 142843 Other Sources
Entered by Matt Vernon
Checksums ffp , flac-md5
Disc Counts 0 / 0
Media Size
Date Circulated
Date Added
08/10/2018
08/11/2018
Source Summary flac24; Set 2 Recording Info: George Sterry's Master Audience Cassette; Unknown mics > Sony TC-158SD (Maxell UDXLII-90); Transfer Info: Master Cassette (Nakamichi CR-7A) > Tascam DA-3000 (DSF 1-bit/5.6 MHz)> KORG AudioGate 4(.wav 24-bit/96k)> Adobe Audition 3.01 (.wav 24-bit/96k)> TLH flac2496 
  Archive
Source Information - Download Text | Download Zip
Grateful Dead
Folsom Field
University of Colorado
Boulder, CO
Sunday June 8th, 1980

Recording Info:
George Sterry's Master Audience Cassette; Unknown mics > Sony TC-158SD (Maxell UDXLII-90)

Transfer Info:
Master Cassette (Nakamichi CR-7A) > Tascam DA-3000 (DSF 1-bit/5.6 MHz)> KORG AudioGate 4(.wav 24-bit/96k)> Adobe Audition 3.01 (.wav 24-bit/96k)> TLH flac2496

Notes:
- Thanks to George Sterry for the master cassette recording
- Thanks to David Beckwith for liberating the tapes from eBay
- Thanks to Charlie Miller for the transfer and coordinating this effort
- Thanks to Joani Walker, Paul Scotton and Charlie Miller for the shnid88452 FOB Sony ECM-250 source which supplies a 0:38 patch in "Drums"
- Thanks to Joe B. Jones for verifying the pitch

Mastered by Scott Clugston
August 2018

Set Two:
s2t01 - Crowd
s2t02 - Feel Like A Stranger
s2t03 - Ship Of Fools
s2t04 - Estimated Prophet >
s2t05 - Eyes Of The World >
s2t06 - Drums >
s2t07 - Space >
s2t08 - Saint Of Circumstance >
s2t09 - Black Peter >
s2t10 - Sugar Magnolia
s2t11 - Encore Break
s2t12 - Alabama Getaway >
s2t13 - Brokedown Palace


    length     expanded size    cdr  WAVE problems  fmt   ratio  filename
     1:17.280      44513324 B   cxx   --   ---xx   flac  0.6507  gd80-06-08 s2t01 Crowd.flac
     9:46.320     337720364 B   cxx   --   ---xx   flac  0.6824  gd80-06-08 s2t02 Feel Like A Stranger.flac
     8:42.893     301186604 B   cxx   --   ---xx   flac  0.6791  gd80-06-08 s2t03 Ship Of Fools.flac
     8:59.027     310479404 B   cxx   --   ---xx   flac  0.6837  gd80-06-08 s2t04 Estimated Prophet.flac
    13:40.787     472773164 B   cxx   --   ---xx   flac  0.6845  gd80-06-08 s2t05 Eyes Of The World.flac
     7:39.387     264606764 B   cxx   --   ---xx   flac  0.6700  gd80-06-08 s2t06 Drums.flac
     2:48.387      96990764 B   cxx   --   ---xx   flac  0.6755  gd80-06-08 s2t07 Space.flac
     5:51.000     202176044 B   cxx   --   ---xx   flac  0.6863  gd80-06-08 s2t08 Saint Of Circumstance.flac
     8:49.507     304995884 B   cxx   --   ---xx   flac  0.6784  gd80-06-08 s2t09 Black Peter.flac
     8:25.027     290895404 B   cxx   --   ---xx   flac  0.6916  gd80-06-08 s2t10 Sugar Magnolia.flac
     0:28.640      16496684 B   cxx   --   ---xx   flac  0.6639  gd80-06-08 s2t11 Encore Break.flac
     4:51.840     168099884 B   cxx   --   ---xx   flac  0.6886  gd80-06-08 s2t12 Alabama Getaway.flac
     5:40.018     195850514 B   cxx   --   ---xx   flac  0.6767  gd80-06-08 s2t13 Brokedown Palace.flac
    87:00.112    3006784802 B                            0.6814  (13 files)


Show Checksums
ffp
gd80-06-08 s2t01 Crowd.flac:440720aca28e1be4967c0f7fc3b77622
gd80-06-08 s2t02 Feel Like A Stranger.flac:d746d747d8bf4c056f5e53237f2dd422
gd80-06-08 s2t03 Ship Of Fools.flac:2e043b99ca89470dd08eb0f4a63432f7
gd80-06-08 s2t04 Estimated Prophet.flac:af639498dd4f544c8801e241302a2934
gd80-06-08 s2t05 Eyes Of The World.flac:f21819dc6282743d3b35c53c5d87c68d
gd80-06-08 s2t06 Drums.flac:0078475993b6aba5d9df16a793546bd0
gd80-06-08 s2t07 Space.flac:4b582d1b9a43bcbf34261895477ce3af
gd80-06-08 s2t08 Saint Of Circumstance.flac:9ffb23d81e13f4a866aaf419deadfe28
gd80-06-08 s2t09 Black Peter.flac:38a29df63f6b74658f4884d777a01809
gd80-06-08 s2t10 Sugar Magnolia.flac:2ff18c56e12eb25eb6341f6cd462eb12
gd80-06-08 s2t11 Encore Break.flac:81e5dbf707a98344bb404b9154d25204
gd80-06-08 s2t12 Alabama Getaway.flac:ec2619a43d9d92edbb1b55e7db25dda0
gd80-06-08 s2t13 Brokedown Palace.flac:fae3818fd173746f51a7fdefe8079ac9
flac-md5
a74127e8a3ea076774674cd5b005e242 *gd80-06-08 s2t01 Crowd.flac
b86c3a25700d76493469bebd56aa3fb8 *gd80-06-08 s2t02 Feel Like A Stranger.flac
462d8d91bd5be0e204a8fd2d678a1754 *gd80-06-08 s2t03 Ship Of Fools.flac
2259edc193abc29809eb7e5227730f21 *gd80-06-08 s2t04 Estimated Prophet.flac
0835a088306003f2103d86ded5c1389d *gd80-06-08 s2t05 Eyes Of The World.flac
8bb633183c3e37d0b11fe385bf224428 *gd80-06-08 s2t06 Drums.flac
4354c8e00613eb9e5249f2ef069f75b9 *gd80-06-08 s2t07 Space.flac
a304194dde0681b9038a9a4aefb5acf0 *gd80-06-08 s2t08 Saint Of Circumstance.flac
098afc6aea5ea93ab8f5d40979118958 *gd80-06-08 s2t09 Black Peter.flac
cfdb63f1ede3c51939035bcdcf63c744 *gd80-06-08 s2t10 Sugar Magnolia.flac
37a1ad52d3f6238c6fdbbfece3928091 *gd80-06-08 s2t11 Encore Break.flac
12e554d13b60c2cb0a56ac9322d1f4f6 *gd80-06-08 s2t12 Alabama Getaway.flac
a8f8122460942de0e45d83d83bf1a7f4 *gd80-06-08 s2t13 Brokedown Palace.flac

Comments
Add Comment
Other Sources (comments)
Recording by Rob Eaton: FOB... (1) Master Audience Cassette;... (0) flac16; Recording by... (1) flac16; Sony ECM-990... (0) flac16; Recorded By... (0) flac16/48kHz; Set 2... (0)
Date User Comment