Browse Collections Artists Sources   Search Dates

Add Show    List Management    Help


Grateful Dead 06/08/80
Folsom Field, U. of Colorado, Boulder, CO
Comments Add Comment    Source Collectors    Add to Collection    Add to Want List    History
Source # 142844 Other Sources
Entered by Matt Vernon
Checksums ffp , flac-md5
Disc Counts 0 / 0
Media Size
Date Circulated
Date Added
08/10/2018
08/11/2018
Source Summary flac16/48kHz; Set 2 Recording Info: George Sterry's Master Audience Cassette; Unknown mics > Sony TC-158SD (Maxell UDXLII-90); Transfer Info: Master Cassette (Nakamichi CR-7A) > Tascam DA-3000 (DSF 1-bit/5.6 MHz)> KORG AudioGate 4(.wav 24-bit/96k)> Adobe Audition 3.01 (.wav 24-bit/96k)> TLH flac2496; 24-bit > 16-bit via dBpoweramp 
  Archive
Source Information - Download Text | Download Zip
Grateful Dead
Folsom Field
University of Colorado
Boulder, CO
Sunday June 8th, 1980

This is a 16/48 fileset. 24-bit > 16-bit via dBpoweramp

Recording Info:
George Sterry's Master Audience Cassette; Unknown mics > Sony TC-158SD (Maxell UDXLII-90)

Transfer Info:
Master Cassette (Nakamichi CR-7A) > Tascam DA-3000 (DSF 1-bit/5.6 MHz)> KORG AudioGate 4(.wav 24-bit/96k)> Adobe Audition 3.01 (.wav 24-bit/96k)> TLH flac2496

Notes:
- Thanks to George Sterry for the master cassette recording
- Thanks to David Beckwith for liberating the tapes from eBay
- Thanks to Charlie Miller for the transfer and coordinating this effort
- Thanks to Joani Walker, Paul Scotton and Charlie Miller for the shnid88452 FOB Sony ECM-250 source which supplies a 0:38 patch in "Drums"
- Thanks to Joe B. Jones for verifying the pitch

Mastered by Scott Clugston
August 2018

Set Two:
s2t01 - Crowd
s2t02 - Feel Like A Stranger
s2t03 - Ship Of Fools
s2t04 - Estimated Prophet >
s2t05 - Eyes Of The World >
s2t06 - Drums >
s2t07 - Space >
s2t08 - Saint Of Circumstance >
s2t09 - Black Peter >
s2t10 - Sugar Magnolia
s2t11 - Encore Break
s2t12 - Alabama Getaway >
s2t13 - Brokedown Palace


    length     expanded size    cdr  WAVE problems  fmt   ratio  filename
     1:17.280      14837804 B   cxx   --   ---xx   flac  0.5321  gd80-06-08 s2t01 Crowd.flac
     9:46.320     112573484 B   cxx   --   ---xx   flac  0.6180  gd80-06-08 s2t02 Feel Like A Stranger.flac
     8:42.893     100395564 B   cxx   --   ---xx   flac  0.6134  gd80-06-08 s2t03 Ship Of Fools.flac
     8:59.027     103493164 B   cxx   --   ---xx   flac  0.6242  gd80-06-08 s2t04 Estimated Prophet.flac
    13:40.787     157591084 B   cxx   --   ---xx   flac  0.6265  gd80-06-08 s2t05 Eyes Of The World.flac
     7:39.387      88202284 B   cxx   --   ---xx   flac  0.6004  gd80-06-08 s2t06 Drums.flac
     2:48.387      32330284 B   cxx   --   ---xx   flac  0.5998  gd80-06-08 s2t07 Space.flac
     5:51.000      67392044 B   cxx   --   ---xx   flac  0.6278  gd80-06-08 s2t08 Saint Of Circumstance.flac
     8:49.507     101665324 B   cxx   --   ---xx   flac  0.6075  gd80-06-08 s2t09 Black Peter.flac
     8:25.027      96965164 B   cxx   --   ---xx   flac  0.6423  gd80-06-08 s2t10 Sugar Magnolia.flac
     0:28.640       5498924 B   cxx   --   ---xx   flac  0.5673  gd80-06-08 s2t11 Encore Break.flac
     4:51.840      56033324 B   cxx   --   ---xx   flac  0.6350  gd80-06-08 s2t12 Alabama Getaway.flac
     5:40.018      65283532 B   cxx   --   ---xx   flac  0.6058  gd80-06-08 s2t13 Brokedown Palace.flac
    87:00.112    1002261980 B                            0.6179  (13 files)


Show Checksums
ffp
gd80-06-08 s2t01 Crowd.flac:efc801ca5b07dfd97511ed333eea1c14
gd80-06-08 s2t02 Feel Like A Stranger.flac:06953325ce0f5c64c6c9a920f8766390
gd80-06-08 s2t03 Ship Of Fools.flac:8a10b559038959a089eb23ea9dcc46ee
gd80-06-08 s2t04 Estimated Prophet.flac:a886fb90dc62b6c819227474c0864aee
gd80-06-08 s2t05 Eyes Of The World.flac:8a88a49f0628b766edc2d1634d19a8ea
gd80-06-08 s2t06 Drums.flac:5641d08df74b99c62a090bfcdac7a8ee
gd80-06-08 s2t07 Space.flac:5d3a20757a29c23edf9c80ee8a33e3a3
gd80-06-08 s2t08 Saint Of Circumstance.flac:b6b611f7cab45dd450298e3b07c0a76b
gd80-06-08 s2t09 Black Peter.flac:a1fec20a9c9ea9ac9f5b4e692d09ca8b
gd80-06-08 s2t10 Sugar Magnolia.flac:b6e65dc1b3a40c5d37d17d6a6e6fc18c
gd80-06-08 s2t11 Encore Break.flac:85f08d9b42827eec89f607ba72e76648
gd80-06-08 s2t12 Alabama Getaway.flac:8448ea3c193d3dae87ca4e43726e22d8
gd80-06-08 s2t13 Brokedown Palace.flac:30f60c7dff703f977fdaa0bda8eb553f
flac-md5
edb832520ac36602ad86badd44fefc7d *gd80-06-08 s2t01 Crowd.flac
03f1cb9ff3aefb55b90acf3679f4ca7d *gd80-06-08 s2t02 Feel Like A Stranger.flac
a89a2655a68c9d89498b05e1b3248cf0 *gd80-06-08 s2t03 Ship Of Fools.flac
a2ee740b06f810634e9079b0468b4c99 *gd80-06-08 s2t04 Estimated Prophet.flac
35373ebe3b4706911eacb82571ba868d *gd80-06-08 s2t05 Eyes Of The World.flac
85a9bf82f955bce7119bb6a156fc5360 *gd80-06-08 s2t06 Drums.flac
e7ce89bd828d3775485783df0a047c5e *gd80-06-08 s2t07 Space.flac
83a412f1301b7e8b8c97f1fd9f8a778c *gd80-06-08 s2t08 Saint Of Circumstance.flac
59453a8cae58c48375ee4d7cd574aec1 *gd80-06-08 s2t09 Black Peter.flac
b31ed4ad4862dbf029e803a11897a6c0 *gd80-06-08 s2t10 Sugar Magnolia.flac
8c828eab682cc72f8b6f95a6599928ba *gd80-06-08 s2t11 Encore Break.flac
702bb409046e76ed0150d27207378113 *gd80-06-08 s2t12 Alabama Getaway.flac
2f4f1389a905636fa5f13531583e3504 *gd80-06-08 s2t13 Brokedown Palace.flac

Comments
Add Comment
Other Sources (comments)
Recording by Rob Eaton: FOB... (1) Master Audience Cassette;... (0) flac16; Recording by... (1) flac16; Sony ECM-990... (0) flac16; Recorded By... (0) flac24; Set 2... (0)
Date User Comment