Browse Collections Artists Sources   Search Dates

Add Show    List Management    Help


Grateful Dead 05/02/81
The Spectrum, Philadelphia, PA
Comments Add Comment    Source Collectors    Add to Collection    Add to Want List    History
Source # 142847 Other Sources
Entered by Matt Vernon
Checksums ffp , flac-md5
Disc Counts 0 / 0
Media Size
Date Circulated
Date Added
08/07/2018
08/11/2018
Source Summary flac24; Source Info: Jim Wise's Master Audience Cassettes; Sennheiser 421 mics > Sony TC-D5 (Maxell UD-XLII)(located at the soundboard); Transfer Info: Master Cassettes (Nakamichi Dragon)> Tascam DA-3000 (DSF 1-bit/5.6 MHz) > dBpoweramp (24-bit/96 kHz) > Adobe Audition 3.01 (24-bit/96 kHz) > TLH flac2496 
  Archive
Source Information - Download Text | Download Zip
Grateful Dead
The Spectrum
Philadelphia, PA
Saturday May 2nd, 1981

Source Info:
Jim Wise's Master Audience Cassettes; Sennheiser 421 mics > Sony TC-D5 (Maxell UD-XLII)(located at the soundboard)

Transfer Info:
Master Cassettes (Nakamichi Dragon)> Tascam DA-3000 (DSF 1-bit/5.6 MHz) > dBpoweramp (24-bit/96 kHz) > Adobe Audition 3.01 (24-bit/96 kHz) > TLH flac2496

Notes:
- Thanks to Jim Wise for recording the show and the fresh transcription of his audience master
- Thanks to Charlie Miller for coordinating this effort
- Thanks to the Doug Mow and Alex Ford for the shnid28304 Nakamichi 300 source which supplies a 1:17 patch in "Drums"
- Another nice capture

Mastered by Scott Clugston
July 2018

Set One:
s1t01 - Crowd
s1t02 - Jack Straw >
s1t03 - Sugaree >
s1t04 - El Paso
s1t05 - Bird Song
s1t06 - Cassidy
s1t07 - Candyman >
s1t08 - New Minglewood Blues
s1t09 - Althea
s1t10 - Promised Land

Set 2:
s2t01 - Scarlet Begonias >
s2t02 - Fire On The Mountain
s2t03 - Estimated Prophet >
s2t04 - Terrapin Station >
s2t05 - Drums >
s2t06 - Space >
s2t07 - Not Fade Away >
s2t08 - Stella Blue >
s2t09 - Around And Around >
s2t10 - Good Lovin'
s2t11 - Encore Break
s2t12 - One More Saturday Night


    length     expanded size    cdr  WAVE problems  fmt   ratio  filename
     1:35.960      55273004 B   cxx   --   ---xx   flac  0.7148  gd81-05-02 s1t01 Crowd.flac
     5:06.613     176609324 B   cxx   --   ---xx   flac  0.7489  gd81-05-02 s1t02 Jack Straw.flac
    10:43.547     370682924 B   cxx   --   ---xx   flac  0.7429  gd81-05-02 s1t03 Sugaree.flac
     6:02.787     208965164 B   cxx   --   ---xx   flac  0.7400  gd81-05-02 s1t04 El Paso.flac
    10:35.080     365806124 B   cxx   --   ---xx   flac  0.7483  gd81-05-02 s1t05 Bird Song.flac
     5:34.320     192568364 B   cxx   --   ---xx   flac  0.7513  gd81-05-02 s1t06 Cassidy.flac
     6:59.893     241858604 B   cxx   --   ---xx   flac  0.7440  gd81-05-02 s1t07 Candyman.flac
     7:16.880     251642924 B   cxx   --   ---xx   flac  0.7479  gd81-05-02 s1t08 New Minglewood Blues.flac
     8:55.227     308290604 B   cxx   --   ---xx   flac  0.7494  gd81-05-02 s1t09 Althea.flac
     4:12.711     145561298 B   cxx   --   ---xx   flac  0.7470  gd81-05-02 s1t10 Promised Land.flac
    11:49.320     408568364 B   cxx   --   ---xx   flac  0.7523  gd81-05-02 s2t01 Scarlet Begonias.flac
    10:50.880     374906924 B   cxx   --   ---xx   flac  0.7504  gd81-05-02 s2t02 Fire On The Mountain.flac
    12:09.800     420364844 B   cxx   --   ---xx   flac  0.7459  gd81-05-02 s2t03 Estimated Prophet.flac
    12:04.280     417185324 B   cxx   --   ---xx   flac  0.7423  gd81-05-02 s2t04 Terrapin Station.flac
     9:06.267     314649644 B   cxx   --   ---xx   flac  0.7135  gd81-05-02 s2t05 Drums.flac
     3:46.520     130475564 B   cxx   --   ---xx   flac  0.7154  gd81-05-02 s2t06 Space.flac
     7:34.840     261987884 B   cxx   --   ---xx   flac  0.7453  gd81-05-02 s2t07 Not Fade Away.flac
     8:22.800     289612844 B   cxx   --   ---xx   flac  0.7331  gd81-05-02 s2t08 Stella Blue.flac
     3:51.947     133601324 B   cxx   --   ---xx   flac  0.7483  gd81-05-02 s2t09 Around & Around.flac
     7:43.267     266841644 B   cxx   --   ---xx   flac  0.7526  gd81-05-02 s2t10 Good Lovin'.flac
     0:33.667      19392044 B   cxx   --   ---xx   flac  0.7252  gd81-05-02 s2t11 Encore Break.flac
     4:42.077     162476444 B   cxx   --   ---xx   flac  0.7511  gd81-05-02 s2t12 One More Saturday Night.flac
   159:38.681    5517321182 B                            0.7435  (22 files)


Show Checksums
ffp
gd81-05-02 s1t01 Crowd.flac:53fb7a4bdcb9bde29a8c0a31c6b196ae
gd81-05-02 s1t02 Jack Straw.flac:98036b33eb358f622daa9b7faed6e4a6
gd81-05-02 s1t03 Sugaree.flac:ea984037a6c4ac44a71875eb08157cb2
gd81-05-02 s1t04 El Paso.flac:79d821fdf444e18e9f6ef90ce1df91de
gd81-05-02 s1t05 Bird Song.flac:49b1ef0f0f9eb4884819ccf96ae1b279
gd81-05-02 s1t06 Cassidy.flac:406412507819768dde807a7414fe6330
gd81-05-02 s1t07 Candyman.flac:bdcb19bf139f2de73c2921dfd42e57b2
gd81-05-02 s1t08 New Minglewood Blues.flac:7edec1df9ff7f5f734ac21a48686cdc3
gd81-05-02 s1t09 Althea.flac:2e5c95eb6a419ae897bdd34d7724cff6
gd81-05-02 s1t10 Promised Land.flac:54d3c6b08f0b33779f3ae0105ba1cb77
gd81-05-02 s2t01 Scarlet Begonias.flac:1581f51d2ade64a0b541d49e8271df5c
gd81-05-02 s2t02 Fire On The Mountain.flac:06d6e4dad856ba1c16ddb4ba77a74598
gd81-05-02 s2t03 Estimated Prophet.flac:535621d92ecf1dd9578e51ed1d6b5375
gd81-05-02 s2t04 Terrapin Station.flac:f64927c69aab65d5cf8e0e9e4bf0a070
gd81-05-02 s2t05 Drums.flac:9ad59fd974b20620e7f4d9ec33d89201
gd81-05-02 s2t06 Space.flac:f72f4975dc5f474002d13789729bbe9c
gd81-05-02 s2t07 Not Fade Away.flac:4663e0472396d8569129bdcaf1c6b05b
gd81-05-02 s2t08 Stella Blue.flac:6ec632e699e9aad8fb0e0c5c4e7f695c
gd81-05-02 s2t09 Around & Around.flac:e7ad30ac7b4d91b6ea319e492b07f087
gd81-05-02 s2t10 Good Lovin'.flac:bcdba2b0a611ce7651cd2ce65bc9f5d4
gd81-05-02 s2t11 Encore Break.flac:fadc875ab1fc6dde9b6dde2ad59a4ed7
gd81-05-02 s2t12 One More Saturday Night.flac:f440863883a27362d94c7c161f801034
flac-md5
772f4cfbd4cb03baed3506db67b0a8d3 *gd81-05-02 s1t01 Crowd.flac
5cf69eba17d0a17ceb4824bbd767a32c *gd81-05-02 s1t02 Jack Straw.flac
122b4b6aa4fb3e876b558ae2dee301f7 *gd81-05-02 s1t03 Sugaree.flac
cf661916ebe06feb1ace70ac266e6b5c *gd81-05-02 s1t04 El Paso.flac
a089d5dd491458996b32b2f2f37cf7ea *gd81-05-02 s1t05 Bird Song.flac
87da1468b96ba243020e6988c8a2c680 *gd81-05-02 s1t06 Cassidy.flac
ee08d0c58f839109947398c931397bf1 *gd81-05-02 s1t07 Candyman.flac
dc1fa7d2a9ffba3c4ab6d6cec02bc7a0 *gd81-05-02 s1t08 New Minglewood Blues.flac
be289574bbb886bae2758f77ce629d46 *gd81-05-02 s1t09 Althea.flac
9193aaf3dbfedf1cccab1d08899995a7 *gd81-05-02 s1t10 Promised Land.flac
3307a7d1567e5aaa477a0e60727c1759 *gd81-05-02 s2t01 Scarlet Begonias.flac
0807d400cb906fec65d5a3477ecee72d *gd81-05-02 s2t02 Fire On The Mountain.flac
3f4989b64c0676596d2e8693482a8394 *gd81-05-02 s2t03 Estimated Prophet.flac
b6556f4e9c515e19273915dad21395b0 *gd81-05-02 s2t04 Terrapin Station.flac
f5e1dc994c09ce0447f736c4c5253ce8 *gd81-05-02 s2t05 Drums.flac
57214354aa6ee9b512972209cb27f7fa *gd81-05-02 s2t06 Space.flac
615ef9ed3bc55f1859acb6440b276345 *gd81-05-02 s2t07 Not Fade Away.flac
0ebee260740fba094aada60b6ff7203e *gd81-05-02 s2t08 Stella Blue.flac
22ac8c79f017a2a5719946324b163a0c *gd81-05-02 s2t09 Around & Around.flac
da0e6f3cc78a9bf40c4a49cc7246459f *gd81-05-02 s2t10 Good Lovin'.flac
1d0db3e650c69f306b61db397175c08a *gd81-05-02 s2t11 Encore Break.flac
d44fe0efa8fa5bd484486c0cf8706bc7 *gd81-05-02 s2t12 One More Saturday Night.flac

Comments
Add Comment
Other Sources (comments)
Recording by Jim Wise.... (2) AUD : MC (FOB Senn 421s >... (0) Main Lineage: Soundboard ->... (0) flac16; Recording by... (6) flac16; SBD ->... (0) flac24; Cassette... (0) flac16; 2 source... (0) flac16/48kHz; Source... (0)
Date User Comment