Browse Collections Artists Sources   Search Dates

Add Show    List Management    Help


Grateful Dead 05/02/81
The Spectrum, Philadelphia, PA
Comments Add Comment    Source Collectors    Add to Collection    Add to Want List    History
Source # 142848 Other Sources
Entered by Matt Vernon
Checksums ffp , flac-md5
Disc Counts 0 / 0
Media Size
Date Circulated
Date Added
08/07/2018
08/11/2018
Source Summary flac16/48kHz; Source Info: Jim Wise's Master Audience Cassettes; Sennheiser 421 mics > Sony TC-D5 (Maxell UD-XLII)(located at the soundboard); Transfer Info: Master Cassettes (Nakamichi Dragon)> Tascam DA-3000 (DSF 1-bit/5.6 MHz) > dBpoweramp (24-bit/96 kHz) > Adobe Audition 3.01 (24-bit/96 kHz) > TLH flac2496; 24-bit > 16-bit via dBpoweramp 
  Archive
Source Information - Download Text | Download Zip
Grateful Dead
The Spectrum
Philadelphia, PA
Saturday May 2nd, 1981

This is a 16/48 fileset. 24-bit > 16-bit via dBpoweramp

Source Info:
Jim Wise's Master Audience Cassettes; Sennheiser 421 mics > Sony TC-D5 (Maxell UD-XLII)(located at the soundboard)

Transfer Info:
Master Cassettes (Nakamichi Dragon)> Tascam DA-3000 (DSF 1-bit/5.6 MHz) > dBpoweramp (24-bit/96 kHz) > Adobe Audition 3.01 (24-bit/96 kHz) > TLH flac2496

Notes:
- Thanks to Jim Wise for recording the show and the fresh transcription of his audience master
- Thanks to Charlie Miller for coordinating this effort
- Thanks to Doug Mow and Alex Ford for the shnid28304 Nakamichi 300 source which supplies a 1:17 patch in the transition between "Terrapin Station" and "Drums"
- Another fine capture

Mastered by Scott Clugston
July 2018

Set One:
s1t01 - Crowd
s1t02 - Jack Straw >
s1t03 - Sugaree >
s1t04 - El Paso
s1t05 - Bird Song
s1t06 - Cassidy
s1t07 - Candyman >
s1t08 - New Minglewood Blues
s1t09 - Althea
s1t10 - Promised Land

Set 2:
s2t01 - Scarlet Begonias >
s2t02 - Fire On The Mountain
s2t03 - Estimated Prophet >
s2t04 - Terrapin Station >
s2t05 - Drums >
s2t06 - Space >
s2t07 - Not Fade Away >
s2t08 - Stella Blue >
s2t09 - Around & Around >
s2t10 - Good Lovin'
s2t11 - Encore Break
s2t12 - One More Saturday Night


    length     expanded size    cdr  WAVE problems  fmt   ratio  filename
     1:35.960      18424364 B   cxx   --   ---xx   flac  0.5916  gd81-05-02 s1t01 Crowd.flac
     5:06.613      58869804 B   cxx   --   ---xx   flac  0.6771  gd81-05-02 s1t02 Jack Straw.flac
    10:43.547     123561004 B   cxx   --   ---xx   flac  0.6611  gd81-05-02 s1t03 Sugaree.flac
     6:02.787      69655084 B   cxx   --   ---xx   flac  0.6516  gd81-05-02 s1t04 El Paso.flac
    10:35.080     121935404 B   cxx   --   ---xx   flac  0.6725  gd81-05-02 s1t05 Bird Song.flac
     5:34.320      64189484 B   cxx   --   ---xx   flac  0.6857  gd81-05-02 s1t06 Cassidy.flac
     6:59.893      80619564 B   cxx   --   ---xx   flac  0.6685  gd81-05-02 s1t07 Candyman.flac
     7:16.880      83881004 B   cxx   --   ---xx   flac  0.6854  gd81-05-02 s1t08 New Minglewood Blues.flac
     8:55.227     102763564 B   cxx   --   ---xx   flac  0.6735  gd81-05-02 s1t09 Althea.flac
     4:12.710      48520460 B   cxx   --   ---xx   flac  0.6832  gd81-05-02 s1t10 Promised Land.flac
    11:49.320     136189484 B   cxx   --   ---xx   flac  0.6827  gd81-05-02 s2t01 Scarlet Begonias.flac
    10:50.880     124969004 B   cxx   --   ---xx   flac  0.6748  gd81-05-02 s2t02 Fire On The Mountain.flac
    12:09.800     140121644 B   cxx   --   ---xx   flac  0.6668  gd81-05-02 s2t03 Estimated Prophet.flac
    12:04.280     139061804 B   cxx   --   ---xx   flac  0.6651  gd81-05-02 s2t04 Terrapin Station.flac
     9:06.267     104883244 B   cxx   --   ---xx   flac  0.6257  gd81-05-02 s2t05 Drums.flac
     3:46.520      43491884 B   cxx   --   ---xx   flac  0.5900  gd81-05-02 s2t06 Space.flac
     7:34.840      87329324 B   cxx   --   ---xx   flac  0.6692  gd81-05-02 s2t07 Not Fade Away.flac
     8:22.800      96537644 B   cxx   --   ---xx   flac  0.6323  gd81-05-02 s2t08 Stella Blue.flac
     3:51.947      44533804 B   cxx   --   ---xx   flac  0.6789  gd81-05-02 s2t09 Around & Around.flac
     7:43.267      88947244 B   cxx   --   ---xx   flac  0.6918  gd81-05-02 s2t10 Good Lovin'.flac
     0:33.667       6464044 B   cxx   --   ---xx   flac  0.6181  gd81-05-02 s2t11 Encore Break.flac
     4:42.077      54158844 B   cxx   --   ---xx   flac  0.6948  gd81-05-02 s2t12 One More Saturday Night.flac
   159:38.681    1839107704 B                            0.6661  (22 files)


Show Checksums
ffp
gd81-05-02 s1t01 Crowd.flac:f6e4c0efa84fd16a7cfef4c704af8e16
gd81-05-02 s1t02 Jack Straw.flac:a82c9c72c0c4bbec657b7e70b274efa9
gd81-05-02 s1t03 Sugaree.flac:240ec62f383899d43d2020e943dcf408
gd81-05-02 s1t04 El Paso.flac:a293ad3b051eebdc3ecd99a52ecfd120
gd81-05-02 s1t05 Bird Song.flac:78f4bcb138593d0ae09d110d5743be84
gd81-05-02 s1t06 Cassidy.flac:f148bdf800b1e7fefcb50c370d1a7bfa
gd81-05-02 s1t07 Candyman.flac:b3c0fa6bdae8b2bd89fc343c8ac8384a
gd81-05-02 s1t08 New Minglewood Blues.flac:940ac850b25b4e7f9ca0e93ca352f153
gd81-05-02 s1t09 Althea.flac:3e7fadca4c341e863d198790db3fd61e
gd81-05-02 s1t10 Promised Land.flac:da8b6a2f05eff62aef53728c81c0f021
gd81-05-02 s2t01 Scarlet Begonias.flac:39359874d9803dfceba907496f2af957
gd81-05-02 s2t02 Fire On The Mountain.flac:2930519eb60b595a8506ad94d98b11f2
gd81-05-02 s2t03 Estimated Prophet.flac:41277fcf7f4dbae936c4dfcb78864012
gd81-05-02 s2t04 Terrapin Station.flac:93e27d1d06ae7096cf37a4b65a199515
gd81-05-02 s2t05 Drums.flac:09edabdeb289d0ee6400c5a0d3354e1f
gd81-05-02 s2t06 Space.flac:a5e3f147d9d1a356066ef3a916389a7a
gd81-05-02 s2t07 Not Fade Away.flac:5948bd5b37baa2b9991f9c7ad37ae20c
gd81-05-02 s2t08 Stella Blue.flac:1ef8fdbacec9611f7d1bddab8e0fb495
gd81-05-02 s2t09 Around & Around.flac:b19b8127fe5e0514da767c2b08e16d7b
gd81-05-02 s2t10 Good Lovin'.flac:aaaef9179c4bd5247efc74e3f5dca7fb
gd81-05-02 s2t11 Encore Break.flac:256b1aca750a7f3bdc00ae4c2f44b2c2
gd81-05-02 s2t12 One More Saturday Night.flac:98a5cabf084821030c7aebb4ad31fe2a
flac-md5
491f28f80a07a2938c80029cf511c101 *gd81-05-02 s1t01 Crowd.flac
87f14feaad4af1185be32ccaa1b270da *gd81-05-02 s1t02 Jack Straw.flac
9d6b40414ebe8c98366e5ad54bc74f03 *gd81-05-02 s1t03 Sugaree.flac
8dffffe31826377324aa2f4cee117a33 *gd81-05-02 s1t04 El Paso.flac
28ae39556f1ed26d7b744684c01b0855 *gd81-05-02 s1t05 Bird Song.flac
2b7d90d0496589097e325f5d5d482b84 *gd81-05-02 s1t06 Cassidy.flac
cbed84591fccda5dce226806ffaf7e3f *gd81-05-02 s1t07 Candyman.flac
a7b86a8a51a0b603670843809ebdad14 *gd81-05-02 s1t08 New Minglewood Blues.flac
a92517c873e9a0d77e17d8a58e884ff5 *gd81-05-02 s1t09 Althea.flac
9589b63389c6c50adddd6dba80db13a9 *gd81-05-02 s1t10 Promised Land.flac
217e7919c7b91424a3e647ee35b010ae *gd81-05-02 s2t01 Scarlet Begonias.flac
84e34e90dea521ddaa04fed5c1cc3e30 *gd81-05-02 s2t02 Fire On The Mountain.flac
8168de1a1124795a10bb9626a9003af4 *gd81-05-02 s2t03 Estimated Prophet.flac
57fbba6f46a444bb77ea8e826a45314a *gd81-05-02 s2t04 Terrapin Station.flac
b5b7b5ccfd468a2f23a7ef1abf755bd6 *gd81-05-02 s2t05 Drums.flac
66730c7b0827a95e60af9303202d3672 *gd81-05-02 s2t06 Space.flac
668c2d73840a6c1eb63ce8bc9b63f938 *gd81-05-02 s2t07 Not Fade Away.flac
deee5d5db5fa1311a4a69c9f706c004d *gd81-05-02 s2t08 Stella Blue.flac
17991e768507001ee52a181ec7a02805 *gd81-05-02 s2t09 Around & Around.flac
68ece579a3abf567f28b4484027cf13a *gd81-05-02 s2t10 Good Lovin'.flac
0eac8a9a952f77440b239ff31d19b510 *gd81-05-02 s2t11 Encore Break.flac
8acaa3071965db65e7679f1d6f886df8 *gd81-05-02 s2t12 One More Saturday Night.flac

Comments
Add Comment
Other Sources (comments)
Recording by Jim Wise.... (2) AUD : MC (FOB Senn 421s >... (0) Main Lineage: Soundboard ->... (0) flac16; Recording by... (6) flac16; SBD ->... (0) flac24; Cassette... (0) flac16; 2 source... (0) flac24; Source Info:... (0)
Date User Comment