Browse Collections Artists Sources   Search Dates

Add Show    List Management    Help


Grateful Dead 05/04/81
The Spectrum, Philadelphia, PA
Comments Add Comment    Source Collectors    Add to Collection    Add to Want List    History
Source # 142849 Other Sources
Entered by Matt Vernon
Checksums ffp , flac-md5
Disc Counts 0 / 0
Media Size
Date Circulated
Date Added
08/09/2018
08/11/2018
Source Summary flac24; Source Info: Jim Wise's Master Audience Cassettes; Sennheiser 421 mics > Sony TC-D5 (Maxell XLII-S)(located at the soundboard); Transfer Info: Master Cassettes (Nakamichi Dragon)> Tascam DA-3000 (DSF 1-bit/5.6 MHz) > dBpoweramp (24-bit/96 kHz) > Adobe Audition 3.01 (24-bit/96 kHz) > TLH flac2496 
  Archive
Source Information - Download Text | Download Zip
Grateful Dead
The Spectrum
Philadelphia, PA
Monday May 4th, 1981

Source Info:
Jim Wise's Master Audience Cassettes; Sennheiser 421 mics > Sony TC-D5 (Maxell XLII-S)(located at the soundboard)

Transfer Info:
Master Cassettes (Nakamichi Dragon)> Tascam DA-3000 (DSF 1-bit/5.6 MHz) > dBpoweramp (24-bit/96 kHz) > Adobe Audition 3.01 (24-bit/96 kHz) > TLH flac2496

Notes:
- Thanks to Jim Wise for recording the show and the fresh transcription of his audience master
- Thanks to Charlie Miller for coordinating this effort
- Thanks to Nick Milner, Mark McCue and Alex Ford for the shnid90454 (FOB)Nakamichi 700 source which supplies a 0:07 patch in "China Cat Sunflower", as well as a 0:24 patch in the transition between "Black Peter" and "Sugar Magnolia"
- Patch source pitch corrected and massaged slightly to better match the source
- Source pitch corrected
- Thanks to Joe B. Jones for his assistance with the pitch correction
- Noodle into Nobody's Fault included in "Nobody's Fault But Mine"

Mastered by Scott Clugston
July 2018

Set One:
s1t01 - Crowd
s1t02 - Don't Ease Me In
s1t03 - Beat It On Down the Line
s1t04 - Jack-A-Roe >
s1t05 - Little Red Rooster
s1t06 - Cold Rain & Snow
s1t07 - Mama Tried >
s1t08 - Mexicali Blues
s1t09 - Althea
s1t10 - Looks Like Rain
s1t11 - Bertha >
s1t12 - Greatest Story Ever Told

Set Two:
s2t01 - Crowd
s2t02 - China Cat Sunflower >
s2t03 - I Know You Rider >
s2t04 - Samson & Delilah
s2t05 - To Lay Me Down
s2t06 - Playin' In The Band >
s2t07 - Drums >
s2t08 - Nobody's Fault But Mine >
s2t09 - Lost Sailor >
s2t10 - Saint of Circumstance >
s2t11 - Black Peter >
s2t12 - Sugar Magnolia
Encore:
s2t13 - Brokedown Palace


    length     expanded size    cdr  WAVE problems  fmt   ratio  filename
     1:13.973      42608684 B   cxx   --   ---xx   flac  0.7226  gd81-05-04 s1t01 Crowd.flac
     3:45.387     129822764 B   cxx   --   ---xx   flac  0.7488  gd81-05-04 s1t02 Don't Ease Me In.flac
     3:39.613     126497324 B   cxx   --   ---xx   flac  0.7540  gd81-05-04 s1t03 Beat It On Down The Line.flac
     4:35.813     158868524 B   cxx   --   ---xx   flac  0.7525  gd81-05-04 s1t04 Jack-A-Roe.flac
     9:50.373     340055084 B   cxx   --   ---xx   flac  0.7469  gd81-05-04 s1t05 Little Red Rooster.flac
     6:30.400     224870444 B   cxx   --   ---xx   flac  0.7513  gd81-05-04 s1t06 Cold Rain & Snow.flac
     2:29.987      86392364 B   cxx   --   ---xx   flac  0.7544  gd81-05-04 s1t07 Mama Tried.flac
     4:32.333     156864044 B   cxx   --   ---xx   flac  0.7528  gd81-05-04 s1t08 Mexicali Blues.flac
     8:18.853     287339564 B   cxx   --   ---xx   flac  0.7456  gd81-05-04 s1t09 Althea.flac
     9:37.827     332828204 B   cxx   --   ---xx   flac  0.7433  gd81-05-04 s1t10 Looks Like Rain.flac
     6:53.533     238195244 B   cxx   --   ---xx   flac  0.7579  gd81-05-04 s1t11 Bertha.flac
     4:05.800     141580778 B   cxx   --   ---xx   flac  0.7561  gd81-05-04 s1t12 Greatest Story Ever Told.flac
     0:14.280       8225324 B   cxx   --   ---xx   flac  0.7191  gd81-05-04 s2t01 Crowd.flac
     8:06.187     280043564 B   cxx   --   ---xx   flac  0.7514  gd81-05-04 s2t02 China Cat Sunflower.flac
     5:18.147     183252524 B   cxx   --   ---xx   flac  0.7543  gd81-05-04 s2t03 I Know You Rider.flac
     7:31.480     260052524 B   cxx   --   ---xx   flac  0.7496  gd81-05-04 s2t04 Samson & Delilah.flac
    10:26.320     360760364 B   cxx   --   ---xx   flac  0.7335  gd81-05-04 s2t05 To Lay Me Down.flac
    12:47.907     442314284 B   cxx   --   ---xx   flac  0.7571  gd81-05-04 s2t06 Playin' In The Band.flac
     2:03.880      71354924 B   cxx   --   ---xx   flac  0.7306  gd81-05-04 s2t07 Drums.flac
     3:41.773     127741484 B   cxx   --   ---xx   flac  0.7310  gd81-05-04 s2t08 Nobody's Fault But Mine.flac
     6:54.733     238886444 B   cxx   --   ---xx   flac  0.7387  gd81-05-04 s2t09 Lost Sailor.flac
     6:46.213     233978924 B   cxx   --   ---xx   flac  0.7542  gd81-05-04 s2t10 Saint Of Circumstance.flac
     8:55.333     308352044 B   cxx   --   ---xx   flac  0.7381  gd81-05-04 s2t11 Black Peter.flac
     8:46.053     303006764 B   cxx   --   ---xx   flac  0.7485  gd81-05-04 s2t12 Sugar Magnolia.flac
     6:06.324     211002926 B   cxx   --   ---xx   flac  0.7378  gd81-05-04 s2t13 Brokedown Palace.flac
   153:12.524    5294895116 B                            0.7471  (25 files)



Show Checksums
ffp
gd81-05-04 s1t01 Crowd.flac:c886e9db8822179be3dbc96aca0104b0
gd81-05-04 s1t02 Don't Ease Me In.flac:fd4d26ba1610b289514cf842b0fa06f4
gd81-05-04 s1t03 Beat It On Down The Line.flac:f5fff1e16b521a409fc07687578fef1e
gd81-05-04 s1t04 Jack-A-Roe.flac:fbf64cea641217ae0ac49a58136d7ffa
gd81-05-04 s1t05 Little Red Rooster.flac:7271098a0035bec3db658fe136940c2b
gd81-05-04 s1t06 Cold Rain & Snow.flac:3899537a086e0aed51c647d908a89774
gd81-05-04 s1t07 Mama Tried.flac:8d68ec447f1e15561332336098ac31b9
gd81-05-04 s1t08 Mexicali Blues.flac:0fb73e065e7c2fcba9fe181247f40998
gd81-05-04 s1t09 Althea.flac:a7cffcd1af542ab4a8450b224268ed3b
gd81-05-04 s1t10 Looks Like Rain.flac:28fb15e115ab188b19eab2ae94f7b2c1
gd81-05-04 s1t11 Bertha.flac:e1077b36b90e1757399eb0f15508b7c1
gd81-05-04 s1t12 Greatest Story Ever Told.flac:31ee330c82cb2140e4b13c12301a74f6
gd81-05-04 s2t01 Crowd.flac:9a0982ba3ae1dd263a9cf780525ea256
gd81-05-04 s2t02 China Cat Sunflower.flac:5c272406eaeca58307bd61fe6ae9cb85
gd81-05-04 s2t03 I Know You Rider.flac:63ddb02f4d18b0611c9696671f941307
gd81-05-04 s2t04 Samson & Delilah.flac:49407d341b509243e113c511c082bdb4
gd81-05-04 s2t05 To Lay Me Down.flac:5404b5f1e16cbefa5a959695cb8c1153
gd81-05-04 s2t06 Playin' In The Band.flac:195bbc871cc0363ed92ee8495515f193
gd81-05-04 s2t07 Drums.flac:8d197e2f5da053b43cc41687c7857410
gd81-05-04 s2t08 Nobody's Fault But Mine.flac:176c61cb3ae4edf08494008108ea3b50
gd81-05-04 s2t09 Lost Sailor.flac:67cb290f1c1eefd5efbfda6c74e05824
gd81-05-04 s2t10 Saint Of Circumstance.flac:96e9f0f8becf95bda61804e31bec2d53
gd81-05-04 s2t11 Black Peter.flac:dcdc72831de93f49aaf4e69d1faf54db
gd81-05-04 s2t12 Sugar Magnolia.flac:5d87c0870d3f6f533fd36ec45a4aed39
gd81-05-04 s2t13 Brokedown Palace.flac:c5a09fa1c2d66c521d7eeba97b7505c0
flac-md5
1b1983d1ce56e2729d9fc02c7af7e2ec *gd81-05-04 s1t01 Crowd.flac
af88cd053231c4d4b389a6dca49d2e7e *gd81-05-04 s1t02 Don't Ease Me In.flac
b50113b2a10327555c0caf6e5a494efa *gd81-05-04 s1t03 Beat It On Down The Line.flac
b9e2fd8d296ca24037e34bf78c10f172 *gd81-05-04 s1t04 Jack-A-Roe.flac
d94be144848762b31da8cc23cc4bf857 *gd81-05-04 s1t05 Little Red Rooster.flac
f38685e0aff4ac1a1b08ab37aac29f3d *gd81-05-04 s1t06 Cold Rain & Snow.flac
9cdfb38c6da7be3aae6a0a443c9dffbc *gd81-05-04 s1t07 Mama Tried.flac
4d117a1caaee8b0ba56ee20d400659be *gd81-05-04 s1t08 Mexicali Blues.flac
693a17397258456d9fba76f58b098c2b *gd81-05-04 s1t09 Althea.flac
9b6b425c186857f63f0b3a4d0d95340d *gd81-05-04 s1t10 Looks Like Rain.flac
526e98994dc2745e02557735c0b71c87 *gd81-05-04 s1t11 Bertha.flac
abeb9e4511bfb084e5859c040b75cae3 *gd81-05-04 s1t12 Greatest Story Ever Told.flac
bb55c5e37c0c7a4207aa5db8d494b014 *gd81-05-04 s2t01 Crowd.flac
063352f13447942631e720040cf07471 *gd81-05-04 s2t02 China Cat Sunflower.flac
e7768f2797346117ae1a5aaecf08d1ee *gd81-05-04 s2t03 I Know You Rider.flac
cebb42e12846f283d25f60cd3d6c370c *gd81-05-04 s2t04 Samson & Delilah.flac
080e1f84dab32ae0e9951841e1ff7a29 *gd81-05-04 s2t05 To Lay Me Down.flac
5b5eb033e43e7b8cede0dc729cb9f115 *gd81-05-04 s2t06 Playin' In The Band.flac
ee11515de542a5616a471bb8bbb55b0b *gd81-05-04 s2t07 Drums.flac
857cf33dd274e370b28a52882c48ad97 *gd81-05-04 s2t08 Nobody's Fault But Mine.flac
634569ad97847626a5155b7ae5abdd38 *gd81-05-04 s2t09 Lost Sailor.flac
300118296a2b2e0f7552aecb18fab760 *gd81-05-04 s2t10 Saint Of Circumstance.flac
efd25c8f0d6953d36600aff98263c492 *gd81-05-04 s2t11 Black Peter.flac
072dc5c73549e8c2ef3e432ef8febbf4 *gd81-05-04 s2t12 Sugar Magnolia.flac
3bcc494969c62c6d062452491ffe7c8b *gd81-05-04 s2t13 Brokedown Palace.flac

Comments
Add Comment
Other Sources (comments)
Master Soundboard Cassette... (0) Recording by Ohr Weinberg.... (0) flac16; 1st Gen... (0) flac24; Cassette... (0) flac16; 2 source... (0) flac16; Source Info:... (0) flac16/48kHz; Source... (0)
Date User Comment