Browse Collections Artists Sources   Search Dates

Add Show    List Management    Help


Grateful Dead 05/04/81
The Spectrum, Philadelphia, PA
Comments Add Comment    Source Collectors    Add to Collection    Add to Want List    History
Source # 142850 Other Sources
Entered by Matt Vernon
Checksums ffp , flac-md5
Disc Counts 0 / 0
Media Size
Date Circulated
Date Added
08/09/2018
08/11/2018
Source Summary flac16/48kHz; Source Info: Jim Wise's Master Audience Cassettes; Sennheiser 421 mics > Sony TC-D5 (Maxell XLII-S)(located at the soundboard); Transfer Info: Master Cassettes (Nakamichi Dragon)> Tascam DA-3000 (DSF 1-bit/5.6 MHz) > dBpoweramp (24-bit/96 kHz) > Adobe Audition 3.01 (24-bit/96 kHz) > TLH flac2496; 24-bit > 16-bit via dBpoweramp 
  Archive
Source Information - Download Text | Download Zip
Grateful Dead
The Spectrum
Philadelphia, PA
Monday May 4th, 1981

This is a 16/48 fileset. 24-bit > 16-bit via dBpoweramp

Source Info:
Jim Wise's Master Audience Cassettes; Sennheiser 421 mics > Sony TC-D5 (Maxell XLII-S)(located at the soundboard)

Transfer Info:
Master Cassettes (Nakamichi Dragon)> Tascam DA-3000 (DSF 1-bit/5.6 MHz) > dBpoweramp (24-bit/96 kHz) > Adobe Audition 3.01 (24-bit/96 kHz) > TLH flac2496

Notes:
- Thanks to Jim Wise for recording the show and the fresh transcription of his audience master
- Thanks to Charlie Miller for coordinating this effort
- Thanks to Nick Milner, Mark McCue and Alex Ford for the shnid90454 (FOB)Nakamichi 700 source which supplies a 0:07 patch in "China Cat Sunflower", as well as a 0:24 patch in the "Black Peter > Sugar Magnolia" transition
- Patch source pitch corrected and massaged slightly to better match the source
- Source pitch corrected
- Thanks to Joe B. Jones for his assistance with the pitch correction

Mastered by Scott Clugston
July 2018

Set One:
s1t01 - Crowd
s1t02 - Don't Ease Me In
s1t03 - Beat It On Down the Line
s1t04 - Jack-A-Roe >
s1t05 - Little Red Rooster
s1t06 - Cold Rain & Snow
s1t07 - Mama Tried >
s1t08 - Mexicali Blues
s1t09 - Althea
s1t10 - Looks Like Rain
s1t11 - Bertha >
s1t12 - Greatest Story Ever Told

Set Two:
s2t01 - Crowd
s2t02 - China Cat Sunflower >
s2t03 - I Know You Rider
s2t04 - Samson & Delilah
s2t05 - To Lay Me Down
s2t06 - Playin' In The Band >
s2t07 - Drums >
s2t08 - Nobodys Fault But Mine >
s2t09 - Lost Sailor >
s2t10 - Saint of Circumstance >
s2t11 - Black Peter >
s2t12 - Sugar Magnolia
Encore:
s2t13 - Brokedown Palace


    length     expanded size    cdr  WAVE problems  fmt   ratio  filename
     1:13.973      14202924 B   cxx   --   ---xx   flac  0.6167  gd81-05-04 s1t01 Crowd.flac
     3:45.387      43274284 B   cxx   --   ---xx   flac  0.6676  gd81-05-04 s1t02 Don't Ease Me In.flac
     3:39.613      42165804 B   cxx   --   ---xx   flac  0.6817  gd81-05-04 s1t03 Beat It On Down The Line.flac
     4:35.813      52956204 B   cxx   --   ---xx   flac  0.6767  gd81-05-04 s1t04 Jack-A-Roe.flac
     9:50.373     113351724 B   cxx   --   ---xx   flac  0.6596  gd81-05-04 s1t05 Little Red Rooster.flac
     6:30.400      74956844 B   cxx   --   ---xx   flac  0.6734  gd81-05-04 s1t06 Cold Rain & Snow.flac
     2:29.987      28797484 B   cxx   --   ---xx   flac  0.6852  gd81-05-04 s1t07 Mama Tried.flac
     4:32.333      52288044 B   cxx   --   ---xx   flac  0.6806  gd81-05-04 s1t08 Mexicali Blues.flac
     8:18.853      95779884 B   cxx   --   ---xx   flac  0.6660  gd81-05-04 s1t09 Althea.flac
     9:37.827     110942764 B   cxx   --   ---xx   flac  0.6598  gd81-05-04 s1t10 Looks Like Rain.flac
     6:53.533      79398444 B   cxx   --   ---xx   flac  0.7040  gd81-05-04 s1t11 Bertha.flac
     4:05.800      47193620 B   cxx   --   ---xx   flac  0.6982  gd81-05-04 s1t12 Greatest Story Ever Told.flac
     0:14.280       2741804 B   cxx   --   ---xx   flac  0.5958  gd81-05-04 s2t01 Crowd.flac
     8:06.187      93347884 B   cxx   --   ---xx   flac  0.6846  gd81-05-04 s2t02 China Cat Sunflower.flac
     5:18.147      61084204 B   cxx   --   ---xx   flac  0.6964  gd81-05-04 s2t03 I Know You Rider.flac
     7:31.480      86684204 B   cxx   --   ---xx   flac  0.6901  gd81-05-04 s2t04 Samson & Delilah.flac
    10:26.320     120253484 B   cxx   --   ---xx   flac  0.6402  gd81-05-04 s2t05 To Lay Me Down.flac
    12:47.907     147438124 B   cxx   --   ---xx   flac  0.6999  gd81-05-04 s2t06 Playin' In The Band.flac
     2:03.880      23785004 B   cxx   --   ---xx   flac  0.6398  gd81-05-04 s2t07 Drums.flac
     3:41.773      42580524 B   cxx   --   ---xx   flac  0.6387  gd81-05-04 s2t08 Nobody's Fault But Mine.flac
     6:54.733      79628844 B   cxx   --   ---xx   flac  0.6551  gd81-05-04 s2t09 Lost Sailor.flac
     6:46.213      77993004 B   cxx   --   ---xx   flac  0.7035  gd81-05-04 s2t10 Saint Of Circumstance.flac
     8:55.333     102784044 B   cxx   --   ---xx   flac  0.6540  gd81-05-04 s2t11 Black Peter.flac
     8:46.053     101002284 B   cxx   --   ---xx   flac  0.7007  gd81-05-04 s2t12 Sugar Magnolia.flac
     6:06.324      70334336 B   cxx   --   ---xx   flac  0.6525  gd81-05-04 s2t13 Brokedown Palace.flac
   153:12.524    1764965768 B                            0.6743  (25 files)


Show Checksums
ffp
gd81-05-04 s1t01 Crowd.flac:542c0add8bd2ddf5ef9fe1ead4f7af0f
gd81-05-04 s1t02 Don't Ease Me In.flac:52892cbd96fd18b3b2ec9060e3d21947
gd81-05-04 s1t03 Beat It On Down The Line.flac:a8f079f6b3ba51d2cbb0b997fd3939cf
gd81-05-04 s1t04 Jack-A-Roe.flac:9654f43ddb87d143b4b09e5adf04f1fd
gd81-05-04 s1t05 Little Red Rooster.flac:994f1fe7250d99ec30b04bda7e84535a
gd81-05-04 s1t06 Cold Rain & Snow.flac:c2437742bf5c27da452fe2299b165632
gd81-05-04 s1t07 Mama Tried.flac:bb6aec696cb3f47676e7f0f830cefe69
gd81-05-04 s1t08 Mexicali Blues.flac:0b77386fbd614fe40068ea53d8a89ca3
gd81-05-04 s1t09 Althea.flac:1501ff320a201bf629632f253f2ebf15
gd81-05-04 s1t10 Looks Like Rain.flac:8c08c0c2ba2928bbbdaae9e1f22c0f9e
gd81-05-04 s1t11 Bertha.flac:33f98609f6dce384cf1096184ee9c370
gd81-05-04 s1t12 Greatest Story Ever Told.flac:226ec630d2baaa806a555433aac4ea45
gd81-05-04 s2t01 Crowd.flac:1fdeb6e36a238bec51176dcfab871a58
gd81-05-04 s2t02 China Cat Sunflower.flac:5c9703a518401f9c91d8bb9fcfca9a10
gd81-05-04 s2t03 I Know You Rider.flac:c669bc55d4b79cffe3fabab54b226c0e
gd81-05-04 s2t04 Samson & Delilah.flac:7b7c4efc11b75e284a36800c859ce0f4
gd81-05-04 s2t05 To Lay Me Down.flac:27a626e54b3f462d0349dcfe68878b4a
gd81-05-04 s2t06 Playin' In The Band.flac:039e2aef2de67bc62e15bf15a236862c
gd81-05-04 s2t07 Drums.flac:0236fcc51f150c8582e70376e4b0fcdf
gd81-05-04 s2t08 Nobody's Fault But Mine.flac:50f05d8c6c43c6adb242bb32f1bb5b9c
gd81-05-04 s2t09 Lost Sailor.flac:a2c463d43dfd319b41de9bd9a4fa389e
gd81-05-04 s2t10 Saint Of Circumstance.flac:c0d5fad1e636fe7e737940c0b4c5b4f8
gd81-05-04 s2t11 Black Peter.flac:57ad3176c99a400d9b08b10890f5ac3f
gd81-05-04 s2t12 Sugar Magnolia.flac:1d38c363461d03da5992987a4b10f02c
gd81-05-04 s2t13 Brokedown Palace.flac:6f0431e8d9cd2baf1bf5e5d38c23cd8a
flac-md5
17a944cc931d4344e75ae2f7c2971fcb *gd81-05-04 s1t01 Crowd.flac
37d93273b8753927e624c0127b1b33ee *gd81-05-04 s1t02 Don't Ease Me In.flac
bd98cef8cbc93ea6f38e8854b0dc83dd *gd81-05-04 s1t03 Beat It On Down The Line.flac
c203917c504fa5e03651eb2960866d45 *gd81-05-04 s1t04 Jack-A-Roe.flac
3210428ce5f2b13bfdfb26a5c2350abb *gd81-05-04 s1t05 Little Red Rooster.flac
bb9ec6b6f524bc764d24712642d9fa16 *gd81-05-04 s1t06 Cold Rain & Snow.flac
610f8ef52b2f163b137b097dea36279f *gd81-05-04 s1t07 Mama Tried.flac
3e7997a1ab7af4ad616549473547c6f7 *gd81-05-04 s1t08 Mexicali Blues.flac
ffac9b1a78926bf06de2cc8d39ef0e93 *gd81-05-04 s1t09 Althea.flac
9c5e164b2d666e63cb47a23529ec5821 *gd81-05-04 s1t10 Looks Like Rain.flac
21c1f41c3ca8d48856a61e6073bb1eb5 *gd81-05-04 s1t11 Bertha.flac
7dd2e7cf39ebd2f5bf1a9cfc79e4f2fd *gd81-05-04 s1t12 Greatest Story Ever Told.flac
f7b45714f13c1b6cdaeb145a026bbb61 *gd81-05-04 s2t01 Crowd.flac
9e3283e58f87b25f8d67f2d16611a53b *gd81-05-04 s2t02 China Cat Sunflower.flac
f27fc60dbaeb4738ee26c5d4920d2052 *gd81-05-04 s2t03 I Know You Rider.flac
52d38a538cca69faeaa8b58d3ef0da52 *gd81-05-04 s2t04 Samson & Delilah.flac
ae8f6695c72b5b0bbdbf406a55ebcf6a *gd81-05-04 s2t05 To Lay Me Down.flac
c5982899348f4ce6caa1cb0895b84e4f *gd81-05-04 s2t06 Playin' In The Band.flac
727d37cc9a52f5a9e2766649b08d9bbb *gd81-05-04 s2t07 Drums.flac
f1b21ba3b75ae8a0f9b32e5998059d36 *gd81-05-04 s2t08 Nobody's Fault But Mine.flac
c3ad7bc48018d5a1b177737e488e3ce9 *gd81-05-04 s2t09 Lost Sailor.flac
e915bf567f8a69c2338d57a4b1b0582d *gd81-05-04 s2t10 Saint Of Circumstance.flac
dd73b0fec2fc5baf19141055480b04e4 *gd81-05-04 s2t11 Black Peter.flac
8dffdb6b178fbae57d52999d257c1348 *gd81-05-04 s2t12 Sugar Magnolia.flac
32942a02129216ac8718f3d697650f59 *gd81-05-04 s2t13 Brokedown Palace.flac

Comments
Add Comment
Other Sources (comments)
Master Soundboard Cassette... (0) Recording by Ohr Weinberg.... (0) flac16; 1st Gen... (0) flac24; Cassette... (0) flac16; 2 source... (0) flac16; Source Info:... (0) flac24; Source Info:... (0)
Date User Comment