Browse Collections Artists Sources   Search Dates

Add Show    List Management    Help


Phish 07/28/18
The Forum, Inglewood, CA
Comments Add Comment    Source Collectors    Add to Collection    Add to Want List    History
Source # 142881 Other Sources
Entered by Matt Vernon
Checksums ffp
Disc Counts 0 / 0
Media Size
Date Circulated
Date Added

08/11/2018
Source Summary flac24 96khz Recording Info: Schoeps CMC6/MK4 > Lunatec V2 > Sound Devices 744T (24-bit/96k) > Samplitude Pro X3 Suite > FLAC/24. Recorded by Charlie Miller -- Mic stand was 9ft high with mics aimed at stacks I was set up at front right corner of sound booth. 
Source Information - Download Text | Download Zip
Phish - July 28, 2018
The Forum - Inglewood, CA

Recording Info:
Schoeps CMC6/MK4 > Lunatec V2 > Sound Devices 744T (24-bit/96k) >
Samplitude Pro X3 Suite > FLAC/24
(1 DVD FLAC)

Recorded by Charlie Miller
[email protected]
August 4, 2018

Notes:
-- Mic stand was 9ft high with mics aimed at stacks
-- I was set up at front right corner of sound booth

Set 1:
01 - Tuning
02 - Julius
03 - Suzy Greenberg
04 - Timber Ho!
05 - Soul Shakedown Party
06 - Kill Devil Falls
07 - 555
08 - Your Pet Cat
09 - Tide Turns
10 - No Men In No Man's Land
11 - Bathtub Gin

Set 2:
12 - Tuning
13 - Gotta Jibboo
14 - Fuego
15 - Birds Of A Feather
16 - Meatstick
17 - Soul Planet
18 - Wingsuit
19 - Cavern

Encore:
20 - Encore Break
21 - Sparkle
22 - Character Zero


SHNTOOL OUTPUT:
    length     expanded size    cdr  WAVE problems  fmt   ratio  filename
     0:50.446      29056934 B   cxx   --   ---xx   flac  0.5606  01 Tuning.flac
     8:25.457     291143408 B   cxx   --   ---xx   flac  0.5907  02 Julius.flac
     5:37.325     194298962 B   cxx   --   ---xx   flac  0.5851  03 Suzy Greenburg.flac
     8:24.717     290717102 B   cxx   --   ---xx   flac  0.5693  04 Timber Ho!.flac
     5:29.030     189521366 B   cxx   --   ---xx   flac  0.5803  05 Soul Shakedown Party.flac
    12:22.405     427625102 B   cxx   --   ---xx   flac  0.5848  06 Kill Devil Falls.flac
     6:43.871     232629782 B   cxx   --   ---xx   flac  0.5778  07 555.flac
     5:19.121     183814016 B   cxx   --   ---xx   flac  0.5880  08 Your Pet Cat.flac
     6:33.637     226734860 B   cxx   --   ---xx   flac  0.5690  09 Tide Turns.flac
     9:04.301     313517318 B   cxx   --   ---xx   flac  0.5940  10 No Men In No Man's Land.flac
    11:42.800     404812934 B   cxx   --   ---xx   flac  0.5705  11 Bathtub Gin.flac
     0:54.879      31610204 B   cxx   --   ---xx   flac  0.5214  12 Tuning.flac
    13:21.748     461807156 B   cxx   --   ---xx   flac  0.5854  13 Gotta Jibboo.flac
    17:45.845     613926842 B   cxx   --   ---xx   flac  0.5700  14 Fuego.flac
     6:09.656     212921888 B   cxx   --   ---xx   flac  0.5864  15 Birds Of A Feather.flac
     5:20.317     184502786 B   cxx   --   ---xx   flac  0.5822  16 Meatstick.flac
    16:11.749     559727714 B   cxx   --   ---xx   flac  0.5829  17 Soul Planet.flac
     9:38.805     333391586 B   cxx   --   ---xx   flac  0.5683  18 Wingsuit.flac
     4:48.591     166228196 B   cxx   --   ---xx   flac  0.5938  19 Cavern.flac
     2:44.753      94897862 B   cxx   --   ---xx   flac  0.5407  20 Encore Break.flac
     3:33.433     122937236 B   cxx   --   ---xx   flac  0.5848  21 Sparkle.flac
     7:22.224     254720984 B   cxx   --   ---xx   flac  0.5930  22 Character Zero.flac
   168:25.110    5820544238 B                            0.5797  (22 files)

Show Checksums
ffp
01 Tuning.flac:d634f68e87cdd43904aa2006e550f941
02 Julius.flac:ba0b5f7e6e4c8f9ac703364cb0143e34
03 Suzy Greenburg.flac:9db992ac36de56151be85992f7d58584
04 Timber Ho!.flac:8661dff114af24ed1810266cc1eb0659
05 Soul Shakedown Party.flac:95e1c2700dd7146f32de4a2c80c64e46
06 Kill Devil Falls.flac:af29f1271f6040c79c722747e3351f52
07 555.flac:1ea31d09eb4e9a192e6839f2690fe832
08 Your Pet Cat.flac:3be8537399e81f2bb9217bbf4b14d89d
09 Tide Turns.flac:bada1b4fe9e69dfdf640ca8c8f70ca11
10 No Men In No Man's Land.flac:d9f00b9398f084b4e37405600c498e74
11 Bathtub Gin.flac:025b12c212b83b282d080995db14886d
12 Tuning.flac:e8027f81dca572dadd97aa1bab0f4ac4
13 Gotta Jibboo.flac:8eae50b1f16406a4b38a836f808e8d7e
14 Fuego.flac:01c1b5280d9373c986ea819a0a88e69a
15 Birds Of A Feather.flac:066b540c28440dd03bf4a30a3d6645ee
16 Meatstick.flac:e628619dabca611bf811a815f9948a15
17 Soul Planet.flac:e32ce7e5b842de708ff7541df5fa6efb
18 Wingsuit.flac:29caa86f12a112595c5d74059c12d143
19 Cavern.flac:45a30814f276141c4c030c09f0f94b99
20 Encore Break.flac:94c810133759ab3572630753942ff0f7
21 Sparkle.flac:df8e5e32bdd037694b8c65d002c90552
22 Character Zero.flac:e411a18d6471da1762a65ba22a7124cf

Comments
Add Comment
Other Sources (comments)
flac16 44.1hz ... (0) flac16 44.1khz ... (0) flac16 44.1khz ... (0) flac16 44.1khz ... (0)
Date User Comment