Browse Collections Artists Sources   Search Dates

Add Show    List Management    Help


Grateful Dead 02/23/93
Oakland-Alameda County Coliseum, Oakland, CA
Comments Add Comment    Source Collectors    Add to Collection    Add to Want List    History
Source # 142896 Other Sources
Entered by Matt Vernon
Checksums flac-md5 , ffp
Disc Counts 0 / 0
Media Size Compressed: 1.59 GB (1709178880 bytes)
Uncompressed: 1.7 GB (1824642452 bytes)
Date Circulated
Date Added
08/11/2018
08/11/2018
Source Summary DTS-Audio-CD 5.1 Mix; - SBD (shnid = 1611) SBD> DAT> Sonic Solutions (for phase correction)> CD; via Mike Hall + AUD (shnid = 141067) fl1c6/44.1 Source Info: FOB Schoeps CMC 54-> DAT Transfer Info: DAT Tape (Panasonic SV-3700) -> Coxial SPDIF-> Marantz PMD 661 MKII (Solid State Recorder)-> SD Card-> Wav-> Flac Level 8-> Tagged (16/48) Transfers by Pete Ebel - dts mixing by Kevin Tobin 
  Archive
Source Information - Download Text | Download Zip
Grateful Dead
February 23, 1993
Oakland Coliseum Arena
Oakland, CA

DTS-Audio-CD 5.1 Mix

Set 1:
d1t01 - Tuning
d1t02 - Cold Rain & Snow
d1t03 - Wang Dang Doodle
d1t04 - Loser
d1t05 - Stuck Inside of Mobile With the Memphis Blues Again
d1t06 - Broken Arrow (1)
d1t07 - Way To Go Home
d1t08 - Johnny B. Goode

Set 2:
d2t01 - Mardi Gras Drums *%$
d2t02 - Iko-Iko *%$
d2t03 - Corrina
d2t04 - Lazy River Road
d2t05 - Playin' In The Band
d2t06 - Drums @^
d3t01 - Space @*#
d3t02 - The Other One *#
d3t03 - Stella Blue #
d3t04 - Turn On Your Lovelight #

Encore:
d3t05 - Brokedown Palace

Jerry Garcia - Guitar
Bob Weir - Guitar
Vince Welnick - Keyboards
Phil Lesh - Bass
Bill Kreutzmann - Drums
Mickey Hart - Drums
Ornette Coleman - Saxophone #
Denardo Coleman - Drums *
Sikiru Adepoju - Percussion %, Hand Drum @
Graham Wiggins - LP Clave $, Yirdaki (Didgeridoo) ^

Notes:
(1) First Time Played
Ornette Coleman Group Opened
Jerry sits in last song of Ornette's Set
Jerry plays Wolf

Audio Source Information
Original SBD (shnid = 1611)

SBD > DAT > Sonic Solutions (for phase correction) > CD
.md5 and .shn created by Mike Hall ([email protected])

Original AUD (shnid = 141067)
Source Info:
FOB Schoeps CMC 54-> DAT
Transfer Info:
DAT Tape (Panasonic SV-3700) -> Coxial SPDIF-> Marantz PMD 661 MKII (Solid State Recorder)->
SD Card-> Wav-> Flac Level 8-> Tagged (16/48)
Transfers by Pete Ebel
February 2, 2018
---------------------------------------------------------
- Mixed by [email protected]
- FLAC conversion 08-AUG-2018 - Trader Little Helper
- Tagged 08-AUG-2018 - Tag&Rename
---------------------------------------------------------
More On DTS

Today's audio standards are moving towards multi-channel
sound, like DTS and Dolby Digital. While the Audio-CD
standard (Red Book) hasn't changed to accommodate these
new sound formats, it is still possible to go around the
specification and to put a 5.1 surround recording on a
regular Audio-CD. To play a DTS-Audio-CD you must connect
your DVD/CD player via a digital cable (optical or coaxial)
to your DTS Dolby-Digital receiver. It is not 100% sure
that your receiver will recognize a DTS-Audio CD, so the
first time you're trying to playback a DTS-Audio-CD you
must do a test to determine if it can. Begin with the
volume very low, start the disc and raise the volume
gradually. NEVER listen to a DTS-Audio-CD through the
analog audio outputs of your CD/DVD player.

Burning Instructions

Burn them the absolute same way as you would burn any
normal Audio-CD from FLAC files.

Brokedown House Production

    length     expanded size    cdr  WAVE problems  fmt   ratio  filename
     2:12.26       23345996 B   ---   --   -----    wav  1.0000  gd1993-02-23d1t01.wav
     6:24.30       67808204 B   ---   --   -----    wav  1.0000  gd1993-02-23d1t02.wav
     7:36.06       80452556 B   ---   --   -----    wav  1.0000  gd1993-02-23d1t03.wav
     8:45.68       92769980 B   ---   --   -----    wav  1.0000  gd1993-02-23d1t04.wav
     9:59.38      105753020 B   ---   --   -----    wav  1.0000  gd1993-02-23d1t05.wav
     7:04.41       74890076 B   ---   --   -----    wav  1.0000  gd1993-02-23d1t06.wav
     6:08.01       64917596 B   ---   --   -----    wav  1.0000  gd1993-02-23d1t07.wav
     4:39.61       49359116 B   ---   --   -----    wav  1.0000  gd1993-02-23d1t08.wav
    13:06.53      138775100 B   ---   --   -----    wav  1.0000  gd1993-02-23d2t01.wav
     9:08.22       96718988 B   ---   --   -----    wav  1.0000  gd1993-02-23d2t02.wav
     8:58.32       94978508 B   ---   --   -----    wav  1.0000  gd1993-02-23d2t03.wav
     7:06.07       75162908 B   ---   --   -----    wav  1.0000  gd1993-02-23d2t04.wav
    10:42.59      113387612 B   ---   --   -----    wav  1.0000  gd1993-02-23d2t05.wav
    17:31.15      185431724 B   ---   --   -----    wav  1.0000  gd1993-02-23d2t06.wav
    14:54.32      157776908 B   ---   --   -----    wav  1.0000  gd1993-02-23d3t01.wav
    12:31.60      132617564 B   ---   --   -----    wav  1.0000  gd1993-02-23d3t02.wav
     9:33.24      101133692 B   ---   --   -----    wav  1.0000  gd1993-02-23d3t03.wav
    10:40.49      113011292 B   ---   --   -----    wav  1.0000  gd1993-02-23d3t04.wav
     5:19.34       56351612 B   ---   --   -----    wav  1.0000  gd1993-02-23d3t05.wav
   172:23.58     1824642452 B                            1.0000  (19 files)



Show Checksums
flac-md5
ce95a5a920d23f0a0e3665dff3137aa7 *gd1993-02-23d1t01.flac
0f0aa7dbc8daddcbc33303f972447133 *gd1993-02-23d1t02.flac
eb1ec2343e2f4423c1fa61405d90a15e *gd1993-02-23d1t03.flac
b0e5125d3ea252d2b5ec2420c736d0cf *gd1993-02-23d1t04.flac
47fee66a5101e038cab8ea7e6906fb76 *gd1993-02-23d1t05.flac
5c132e6841df16d6544035f669fb4c6e *gd1993-02-23d1t06.flac
c2448104561f353155b238df10fda189 *gd1993-02-23d1t07.flac
25d0b38ef94967ca0d77e649366b65b4 *gd1993-02-23d1t08.flac
f15f1ad5cdbfa1087d49e975b7a5e8d7 *gd1993-02-23d2t01.flac
501936b4f163ef49240c3ebc9aae05ef *gd1993-02-23d2t02.flac
1cee755f7b7976851b60614d5d557cd1 *gd1993-02-23d2t03.flac
ce35d07019477a7b53c05944f4750568 *gd1993-02-23d2t04.flac
f9dce3c032effa6be85c526a2162f37e *gd1993-02-23d2t05.flac
5a7e73ab75422e0036cd656e920e441e *gd1993-02-23d2t06.flac
2daa49870b662c5fff05f43d397c3c83 *gd1993-02-23d3t01.flac
c4cd15d2f84c24025426a9a63fa5ac5e *gd1993-02-23d3t02.flac
c96196d840edb031fcc048fe7f00baa3 *gd1993-02-23d3t03.flac
b3ad17e65d602d0cf7ce30074e9da6af *gd1993-02-23d3t04.flac
e7b59bbd4dc55e4024de3421c609de77 *gd1993-02-23d3t05.flac
ffp
gd1993-02-23d1t01.flac:93ed7980f0fafdd1ebfea429f8093b30
gd1993-02-23d1t02.flac:26a4bcf6295f27bcae13cd8d522c4ac1
gd1993-02-23d1t03.flac:98cf2d713c17a1b53a2c6f90037bbf26
gd1993-02-23d1t04.flac:b566e1e2c1a8589ccc9344ed5d21608f
gd1993-02-23d1t05.flac:8d561eae49c72fbd5fd7a34bb4083705
gd1993-02-23d1t06.flac:f98e71c69ad6770106b03d37d1e23c75
gd1993-02-23d1t07.flac:ed267099f534afcf201a906838e2575a
gd1993-02-23d1t08.flac:8b9cca8c9b193e3fc7850ad45fa37dff
gd1993-02-23d2t01.flac:dc4e63e329de23a0d348164dc7f8850e
gd1993-02-23d2t02.flac:3ffdf9cb9a0a41f2d9adff0ec7843e1e
gd1993-02-23d2t03.flac:40f37bb35db67ca323b6196bc82cde2d
gd1993-02-23d2t04.flac:efbe92229686ef922d02331e4ca1e194
gd1993-02-23d2t05.flac:61bc055ef4db4b67e6b4ca75eefcf723
gd1993-02-23d2t06.flac:5e3b7bb3e5c5ab4e4ac0b914d9a7a121
gd1993-02-23d3t01.flac:d044978c302524fe77edf5b96e31c020
gd1993-02-23d3t02.flac:35c2803fb89aca8031e6f919da0adf7c
gd1993-02-23d3t03.flac:4d966cea2b92a65cfbd245178ff5a3b0
gd1993-02-23d3t04.flac:a849cedb0bd00e033ccd3079876c47de
gd1993-02-23d3t05.flac:1f31318439e4199fb9af8b17e70a7906

Comments
Add Comment
Other Sources (comments)
SBD> DAT> Sonic Solutions... (5) SBD>DAT(S)>CDR with... (0) flac16; source: 2... (0) flac16; Matrix... (0) flac16/48kHz;... (0) flac16/48kHz; Rob... (1) fl1c6/44.1 Source... (0) flac16/44.1 set 1... (0) flac16; Matrix 2... (0) flac16/48kHz; 5.1... (0)
Date User Comment