Browse Collections Artists Sources   Search Dates

Add Show    List Management    Help


Grateful Dead 11/04/79
Providence Civic Center, Providence, RI
Comments Add Comment    Source Collectors    Add to Collection    Add to Want List    History
Source # 142917 Other Sources
Entered by Matt Vernon
Checksums ffp , flac-md5
Disc Counts 0 / 0
Media Size
Date Circulated
Date Added
08/12/2018
08/12/2018
Source Summary flac16/48kHz; Recording Info: SBD > Cassette Master (Sony TC-D5/Maxell UDXL-II) > Dat (48k); Transfer Info: Dat (Sony PCM-R500) > Tascam DA-3000 > Samplitude Pro X3 Suite > FLAC/48k 
  Archive
Source Information - Download Text | Download Zip
Grateful Dead - November 4, 1979
Providence Civic Center - Providence, RI

Recording Info:
SBD > Cassette Master (Sony TC-D5/Maxell UDXL-II) > Dat (48k)

Transfer Info:
Dat (Sony PCM-R500) > Tascam DA-3000 > Samplitude Pro X3 Suite > FLAC/48k
(3 Discs Audio / 1 DVD FLAC)

Patch Info:
Set 2 SBD > Cassette Master > Cassette > Dat > CD (shnid=7919)
AKG D200 > Cassette Master > FLAC (shnid=101486) supplies:
Easy To Love You (0:00 - 0:48)
He's Gone (7:25 - 7:38)
Around And Around (1:01 - end of track)
U.S. Blues (complete track)

Notes:
-- The second set cassette didn't load properly and was mostly unusable
-- Thanks to Rob Eaton for the Dats
-- Thanks to Tim Friend and Andrew F for the patch source
-- Thanks to Scott Clugston for his continued assistance with this project

Set 1:
01 - New Minglewood Blues
02 - They Love Each Other
03 - Me And My Uncle >
04 - Big River
05 - Althea
06 - Easy To Love You
07 - Brown Eyed Women
08 - Lost Sailor >
09 - Saint Of Circumstance >
10 - Deal

Set 2:
11 - Alabama Getaway >
12 - Greatest Story Ever Told
13 - Ship Of Fools
14 - Estimated Prophet >
15 - He's Gone >
16 - Drums >
17 - Space >
18 - The Other One >
19 - Wharf Rat >
20 - Around And Around

Encore:
21 - Tuning
22 - U.S. Blues


SHNTOOL OUTPUT:
    length     expanded size    cdr  WAVE problems  fmt   ratio  filename
     9:16.997     106943544 B   cxx   --   ---xx   flac  0.5969  01 New Minglewood Blues.flac
    10:12.074     117518320 B   cxx   --   ---xx   flac  0.5803  02 They Love Each Other.flac
     3:07.669      36032536 B   cxx   --   ---xx   flac  0.6268  03 Me And My Uncle.flac
     8:26.431      97234764 B   cxx   --   ---xx   flac  0.5864  04 Big River.flac
     9:12.302     106042096 B   cxx   --   ---xx   flac  0.5935  05 Althea.flac
     5:48.462      66904732 B   cxx   --   ---xx   flac  0.5659  06 Easy To Love You.flac
     7:53.758      90961528 B   cxx   --   ---xx   flac  0.5827  07 Brown Eyed Women.flac
     6:27.826      74462656 B   cxx   --   ---xx   flac  0.5883  08 Lost Sailor.flac
     5:33.521      64036076 B   cxx   --   ---xx   flac  0.6349  09 Saint Of Circumstance.flac
     5:51.999      67583928 B   cxx   --   ---xx   flac  0.6175  10 Deal.flac
     5:32.868      63910616 B   cxx   --   ---xx   flac  0.6079  11 Alabama Getaway.flac
     9:23.276     108149112 B   cxx   --   ---xx   flac  0.5510  12 Greatest Story Ever Told.flac
     9:19.386     107402180 B   cxx   --   ---xx   flac  0.5712  13 Ship Of Fools.flac
    14:00.383     161353616 B   cxx   --   ---xx   flac  0.6024  14 Estimated Prophet.flac
    21:46.622     250871412 B   cxx   --   ---xx   flac  0.5858  15 He's Gone.flac
     8:25.039      96967484 B   cxx   --   ---xx   flac  0.5284  16 Drums.flac
     5:56.934      68531368 B   cxx   --   ---xx   flac  0.5603  17 Space.flac
     5:31.177      63585964 B   cxx   --   ---xx   flac  0.5976  18 The Other One.flac
    10:35.598     122034836 B   cxx   --   ---xx   flac  0.5875  19 Wharf Rat.flac
     8:09.333      93951936 B   cxx   --   ---xx   flac  0.5904  20 Around And Around.flac
     0:18.354       3523932 B   cxx   --   ---xx   flac  0.5340  21 Tuning.flac
     5:53.338      67840940 B   cxx   --   ---xx   flac  0.5953  22 US Blues.flac
   176:43.347    2035843576 B                            0.5858  (22 files)


Show Checksums
ffp
01 New Minglewood Blues.flac:d4ba7fc0e51560fe53d4c282572b29a5
02 They Love Each Other.flac:dbcd27ada1e5db1e4243a33982853754
03 Me And My Uncle.flac:e411a588284d22a63659cf282b9dbfdd
04 Big River.flac:97ae066963357bd81c860bc36387fc42
05 Althea.flac:149eab09c63697c3912c1184ab6f4883
06 Easy To Love You.flac:5f34c459f290cb4d25be408e7213b4d9
07 Brown Eyed Women.flac:1122d3e94ef9de5e8023ede5611e5cd6
08 Lost Sailor.flac:e144ced7b78faf810299a7b0981f68e3
09 Saint Of Circumstance.flac:3ee47ee843f6d3c5dfc7e9bd36d24259
10 Deal.flac:b048bd7638fafa72915913da670a00fd
11 Alabama Getaway.flac:a0e55fbbdd7f5053c652329bd8bc82fa
12 Greatest Story Ever Told.flac:7515a0b2c975b99d68bf768552c973f4
13 Ship Of Fools.flac:f2ff4abead2d9d2da8b04c6ce48ade3c
14 Estimated Prophet.flac:b101a6849ca87e0a02cd530931350f93
15 He's Gone.flac:91b949edb94e0ee1428fb87a07ca9641
16 Drums.flac:eef117b8e1f873ae43f8c03daa1fcc08
17 Space.flac:acd9afd552053493e2daf39d867faedf
18 The Other One.flac:f6baaadde8f23471d5835dc2afeeffad
19 Wharf Rat.flac:230e26eefee3ffc5773f89ad5fdfda2b
20 Around And Around.flac:17860489e582af4ed996164c7c204b40
21 Tuning.flac:3a27ce390f89950c6586fe3f8c8f750a
22 US Blues.flac:0db0965b152d38354983f118727de8b7
flac-md5
6ea760a20f8198331c8ae1710e09d6b9 *01 New Minglewood Blues.flac
dda7121e3e0825c2d56a4702ea8a88b2 *02 They Love Each Other.flac
0705442e3379122ed881e015a21475c3 *03 Me And My Uncle.flac
d408c4965b936d82f3aac1448309fe07 *04 Big River.flac
a2282e33fa47b4425b7ff14d005ff952 *05 Althea.flac
a630da873249bad1a02a2b0364a547cf *06 Easy To Love You.flac
25e9c8d76ec8c629891805bae7027971 *07 Brown Eyed Women.flac
e2a0801272a1f2d8f0df2276788bcc27 *08 Lost Sailor.flac
6c7e4a28a0983e21987e3e65f39cdbce *09 Saint Of Circumstance.flac
650ca35eccb0a9018ba6b2db3324177f *10 Deal.flac
a68ef649f1c6bc9cac5b59f3c32c8c19 *11 Alabama Getaway.flac
8c56f1d80e5567af74296501479eebb8 *12 Greatest Story Ever Told.flac
6f49c5eba2a3f122546f7859d8b9d6e4 *13 Ship Of Fools.flac
f48082c95b3f6a71a65f8c75447169ba *14 Estimated Prophet.flac
f59877c2806f2147b3580092a5e56c9e *15 He's Gone.flac
2e89812f6180fc28e1729f6a7ab7d3a5 *16 Drums.flac
41b7e60844dee80e1b5c721738a3fedd *17 Space.flac
acc9618739eb8e2ad0120a684ef59fcc *18 The Other One.flac
cad14f6028ca1732851baf321e6379b5 *19 Wharf Rat.flac
4f8517aedb6f621936f6723e4a84cd5f *20 Around And Around.flac
08efeb213520446b78341aba042224a9 *21 Tuning.flac
3b721fe2e250c7e1b2e3be75084f09ce *22 US Blues.flac

Comments
Add Comment
Other Sources (comments)
Master Soundboard Cassette... (1) SB>MR>Dick Latvala's... (2) flac16; Unknown... (0) flac24; AUD: AKG... (2) flac16; AUD: AKG... (2) flac16; Recording... (1)
Date User Comment