Browse Collections Artists Sources   Search Dates

Add Show    List Management    Help


Grateful Dead 06/12/87
Ventura County Fairgrounds, Ventura, CA
Comments Add Comment    Source Collectors    Add to Collection    Add to Want List    History
Source # 142921 Other Sources
Entered by Matt Vernon
Checksums ffp , flac-md5
Disc Counts 0 / 0
Media Size
Date Circulated
Date Added

08/14/2018
Source Summary flac24/96 Recording Info: UltraMatrix SBD > Cassette Master (TDK MA-R90). Transfer Info: Cassette Master (Nakamichi CR-7A) > Tascam DA-3000 (DSF 1-bit/5.6 MHz) > KORG AudioGate 4 > Samplitude Pro X3 Suite > FLAC/24 All Transfers and Mastering by Charlie Miller. 
  Archive
Source Information - Download Text | Download Zip
Grateful Dead - June 12, 1987
County Fairgrounds - Ventura, CA

Recording Info:
UltraMatrix SBD > Cassette Master (TDK MA-R90)

Transfer Info:
Cassette Master (Nakamichi CR-7A) > Tascam DA-3000 (DSF 1-bit/5.6 MHz) >
KORG AudioGate 4 > Samplitude Pro X3 Suite > FLAC/24
(1 DVD FLAC)

All Transfers and Mastering by Charlie Miller
[email protected]
August 14, 2018

Notes:
-- Two sets of masters were used to make this show complete

Set 1:
01 - Tuning
02 - Jack Straw >
03 - West L.A. Fadeaway
04 - Mama Tried >
05 - Big River
06 - Candyman
07 - My Brother Esau
08 - Bird Song
09 - Desolation Row >
10 - Don't Ease Me In

Set 2:
11 - Tuning
12 - China Cat Sunflower >
13 - I Know You Rider
14 - Far From Me >
15 - Man Smart (Woman Smarter) >
16 - He's Gone >
17 - Drums >
18 - Space >
19 - The Wheel >
20 - I Need A Miracle >
21 - Black Peter >
22 - Around And Around >
23 - Good Lovin'

Encore:
24 - Encore Break
25 - Touch Of Grey


SHNTOOL OUTPUT:
    length     expanded size    cdr  WAVE problems  fmt   ratio  filename
     0:51.938      29916620 B   cxx   --   ---xx   flac  0.6373  01 Tuning.flac
     5:45.045     198746186 B   cxx   --   ---xx   flac  0.6865  02 Jack Straw.flac
     9:35.316     331382114 B   cxx   --   ---xx   flac  0.6822  03 West LA Fadeaway.flac
     2:36.998      90430928 B   cxx   --   ---xx   flac  0.7073  04 Mama Tried.flac
     6:13.717     215261252 B   cxx   --   ---xx   flac  0.6932  05 Big River.flac
     8:10.104     282299684 B   cxx   --   ---xx   flac  0.6814  06 Candyman.flac
     4:57.113     171137060 B   cxx   --   ---xx   flac  0.6914  07 My Brother Esau.flac
    12:12.924     422163998 B   cxx   --   ---xx   flac  0.6913  08 Bird Song.flac
     9:21.638     323503436 B   cxx   --   ---xx   flac  0.6878  09 Desolation Row.flac
     3:33.139     122767850 B   cxx   --   ---xx   flac  0.6937  10 Don't Ease Me In.flac
     1:08.776      39615104 B   cxx   --   ---xx   flac  0.6385  11 Tuning.flac
     5:22.193     185582936 B   cxx   --   ---xx   flac  0.6885  12 China Cat Sunflower.flac
     8:41.039     300118262 B   cxx   --   ---xx   flac  0.6808  13 I Know You Rider.flac
     4:30.167     155616488 B   cxx   --   ---xx   flac  0.6937  14 Far From Me.flac
     8:24.365     290514302 B   cxx   --   ---xx   flac  0.6855  15 Man Smart (Woman Smarter).flac
    10:13.190     353197586 B   cxx   --   ---xx   flac  0.6723  16 He's Gone.flac
     7:37.297     263403134 B   cxx   --   ---xx   flac  0.6482  17 Drums.flac
     7:33.695     261328184 B   cxx   --   ---xx   flac  0.6510  18 Space.flac
     5:56.643     205426670 B   cxx   --   ---xx   flac  0.6742  19 The Wheel.flac
     4:21.336     150529346 B   cxx   --   ---xx   flac  0.6837  20 I Need A Miracle.flac
     9:08.291     315815474 B   cxx   --   ---xx   flac  0.6767  21 Black Peter.flac
     3:51.065     133093748 B   cxx   --   ---xx   flac  0.6842  22 Around And Around.flac
     6:57.318     240374954 B   cxx   --   ---xx   flac  0.6803  23 Good Lovin'.flac
     3:44.260     129173900 B   cxx   --   ---xx   flac  0.6561  24 Encore Break.flac
     6:07.947     211937594 B   cxx   --   ---xx   flac  0.6750  25 Touch Of Grey.flac
   156:55.513    5423336810 B                            0.6795  (25 files)


Show Checksums
ffp
01 Tuning.flac:71396c127fcca306bbade349faf032f5
02 Jack Straw.flac:fd5b3d9345665254bf07a9bb2339015b
03 West LA Fadeaway.flac:6366a8fc61bdcca865059d0874a59931
04 Mama Tried.flac:08f769babbf490f342d4446813c2e879
05 Big River.flac:9fcb336362bda3c35e381f5f0eec5af4
06 Candyman.flac:2dfdab24381bb99a2d0d945fb7bf156c
07 My Brother Esau.flac:4ecce63e4ad29a08d8df2e1bc40e9952
08 Bird Song.flac:8aaeb2475b6b37aff17b46be849ca2fa
09 Desolation Row.flac:fa6e2da39b8e09dd460639c971d6db10
10 Don't Ease Me In.flac:2752fea20f3f0baa231a71412dd46b4e
11 Tuning.flac:66d3fb33a6d47f4f0b730658a26ccb3d
12 China Cat Sunflower.flac:ab2d675d4672e752b7b8469489a3d255
13 I Know You Rider.flac:b5dee502b0ed43f7a8f231b611603f54
14 Far From Me.flac:e67daa7b71e86cd0bc4a9bc5ac4e4fa9
15 Man Smart (Woman Smarter).flac:762aed6673c996660f8cbe856a141164
16 He's Gone.flac:1964261a13fb4e6b77c81155a1f9e26f
17 Drums.flac:92333b62e386e0e991d85db4d02e7066
18 Space.flac:ddab3c22943a562c062e0a9fcb0caa9d
19 The Wheel.flac:260e6a295d4768ae99fdd4f6142db227
20 I Need A Miracle.flac:f300811182a2a39219e1352cb5adf49e
21 Black Peter.flac:75ac0c6c37a72a68da0182fb76b28e53
22 Around And Around.flac:02e6438ed5bb5d427a415d45e120ede6
23 Good Lovin'.flac:795275f8722dcf3062d254a8eaaea1ab
24 Encore Break.flac:08d2fcc3a8fba3cd57c52e1ab5e4641d
25 Touch Of Grey.flac:f6855717e4182c8da313162644625e63
flac-md5
09c6c9a29a417aee775765d64c0617f4 *01 Tuning.flac
7b3ab51735e3f77ec3b8ffb31f7ad891 *02 Jack Straw.flac
36cc07caf23e65cbeb7c0f06454b223c *03 West LA Fadeaway.flac
044b7b33321849ea76e5ed062ce34ddb *04 Mama Tried.flac
7cff301f4f648a499ada72fed1637dc4 *05 Big River.flac
236b287ee028fbcfd8c121cb240b2fdb *06 Candyman.flac
5bfb42ad6e444a90a27f4c1e0315f256 *07 My Brother Esau.flac
784914673f0db76dcfcbbc4f46f0c432 *08 Bird Song.flac
edfe87d7d1f5f4d28db4313d3f2870a4 *09 Desolation Row.flac
a20e41d4046382a6023539c94dde803d *10 Don't Ease Me In.flac
5b505cc700f8638b2e67e760e0f991b1 *11 Tuning.flac
460fbab9b14a3a30a75cc02e0b36fa82 *12 China Cat Sunflower.flac
a27fed9bfa674a802aeed697d82d79bd *13 I Know You Rider.flac
0a97aa08e5a3d18413e76daeed3cb80a *14 Far From Me.flac
428fe3f4eb4ec258fb4e7c7bbafd997f *15 Man Smart (Woman Smarter).flac
486f0687ecf12b9151c742245d778377 *16 He's Gone.flac
7d6c2da0ffffe77406437f50a90ae331 *17 Drums.flac
2eb3f2df0e6cc7f461a29b6f073bf4a4 *18 Space.flac
a83ddb9b2ec7e5b539dd1d4e370df101 *19 The Wheel.flac
5ce8fc38061782a45a352dccc69c975d *20 I Need A Miracle.flac
2a2ce6cae0e952676c9cb237cee2ce3f *21 Black Peter.flac
f9776f25e15206a1276de2c89d930afa *22 Around And Around.flac
128380f6b539a9ea1ae1d82ba0fd38de *23 Good Lovin'.flac
f01a1e41f369467c03dee12fb0a442f9 *24 Encore Break.flac
27955a71a7470e6611f117ea71124d41 *25 Touch Of Grey.flac

Comments
Add Comment
Other Sources (comments)
FOB-AUD>MC>CDR; Beyer... (0) Master Soundboard Cassette... (0) Bertha Remaster of the... (0) flac16; Source:... (0) flac24/96; Taper:... (0) flac16; Recording... (0) flac24;... (0) flac16/44.1 Source... (2)
Date User Comment