Browse Collections Artists Sources   Search Dates

Add Show    List Management    Help


Grateful Dead 06/12/87
Ventura County Fairgrounds, Ventura, CA
Comments Add Comment    Source Collectors    Add to Collection    Add to Want List    History
Source # 142923 Other Sources
Entered by Gary Field
Checksums ffp , flac-md5
Disc Counts 0 / 0
Media Size
Date Circulated
Date Added

08/14/2018
Source Summary flac16/44.1 Source Info: 1st Set: Master UltraMatrix PCM > Cassette > Dat (16-bit/44.1k) 2nd Set: Master UltraMatrix PCM > Dat (16-bit/44.1k) Transfer Info: Dat (Sony R-500)> Apogee aes/ebu cable > Tascam DA-3000(.wav 16-bit/44.1k)> Adobe Audition 3.01 > TLH flac16. Rob Eaton source Dat, Charlie Miller transfer, mastering by Scott Clugston. 
  Archive
Source Information - Download Text | Download Zip
Grateful Dead
County Fairgrounds
Ventura, CA
Friday  June 12th, 1987

Source Info:
1st Set: Master UltraMatrix PCM > Cassette > Dat (16-bit/44.1k)
2nd Set: Master UltraMatrix PCM > Dat (16-bit/44.1k)

Transfer Info:
Dat (Sony R-500)> Apogee aes/ebu cable > Tascam DA-3000(.wav 16-bit/44.1k)> Adobe Audition 3.01 > TLH flac16

Notes:
- Thanks to Rob Eaton for the source Dat
- Thanks to Charlie Miller for the transfer and coordinating this effort
- Mix issues in "Jack Straw"
- Wheel space included in "The Wheel"

Mastered by Scott Clugston
August 2018

Set One:
s1t01 - Tuning
s1t02 - Jack Straw >
s1t03 - West LA Fadeaway
s1t04 - Mama Tried >
s1t05 - Big River
s1t06 - Candyman
s1t07 - My Brother Esau
s1t08 - Bird Song
s1t09 - Desolation Row >
s1t10 - Don't Ease Me In

Set Two:
s2t01 - Tuning
s2t02 - China Cat Sunflower >
s2t03 - I Know You Rider
s2t04 - Far From Me >
s2t05 - Man Smart (Woman Smarter) >
s2t06 - He's Gone >
s2t07 - Drums >
s2t08 - Space >
s2t09 - The Wheel >
s2t10 - I Need A Miracle >
s2t11 - Black Peter >
s2t12 - Around & Around >
s2t13 - Good Lovin'
s2t14 - Encore Break
s2t15 - Touch Of Grey


    length     expanded size    cdr  WAVE problems  fmt   ratio  filename
     0:52.09        9194012 B   ---   --   ---xx   flac  0.4886  gd87-06-12 s1t01 Tuning.flac
     5:43.47       60615788 B   ---   --   ---xx   flac  0.6951  gd87-06-12 s1t02 Jack Straw.flac
     9:26.27       99905948 B   ---   --   ---xx   flac  0.6514  gd87-06-12 s1t03 West LA Fadeaway.flac
     2:37.06       27708956 B   ---   --   ---xx   flac  0.7085  gd87-06-12 s1t04 Mama Tried.flac
     6:11.55       65573804 B   ---   --   ---xx   flac  0.6492  gd87-06-12 s1t05 Big River.flac
     8:09.45       86365484 B   ---   --   ---xx   flac  0.6355  gd87-06-12 s1t06 Candyman.flac
     5:20.42       56546828 B   ---   --   ---xx   flac  0.6582  gd87-06-12 s1t07 My Brother Esau.flac
    11:47.08      124733660 B   ---   --   ---xx   flac  0.6698  gd87-06-12 s1t08 Bird Song.flac
     9:20.10       98807564 B   ---   --   ---xx   flac  0.6909  gd87-06-12 s1t09 Desolation Row.flac
     3:31.10       37243964 B   ---   --   ---xx   flac  0.7207  gd87-06-12 s1t10 Don't Ease Me In.flac
     1:01.50       10878044 B   ---   --   ---xx   flac  0.4142  gd87-06-12 s2t01 Tuning.flac
     5:48.43       61488380 B   ---   --   ---xx   flac  0.6219  gd87-06-12 s2t02 China Cat Sunflower.flac
     8:13.03       86972300 B   ---   --   ---xx   flac  0.5875  gd87-06-12 s2t03 I Know You Rider.flac
     4:30.49       47743292 B   ---   --   ---xx   flac  0.6344  gd87-06-12 s2t04 Far From Me.flac
     8:24.10       88929164 B   ---   --   ---xx   flac  0.6272  gd87-06-12 s2t05 Man Smart (Woman Smarter).flac
    10:23.40      109991324 B   ---   --   ---xx   flac  0.5537  gd87-06-12 s2t06 He's Gone.flac
     6:52.43       72777980 B   ---   --   ---xx   flac  0.5307  gd87-06-12 s2t07 Drums.flac
     7:47.49       82494092 B   ---   --   ---xx   flac  0.4780  gd87-06-12 s2t08 Space.flac
     6:04.53       64334300 B   ---   --   ---xx   flac  0.5660  gd87-06-12 s2t09 The Wheel.flac
     4:22.07       46233308 B   ---   --   ---xx   flac  0.6284  gd87-06-12 s2t10 I Need A Miracle.flac
     9:08.69       96829532 B   ---   --   ---xx   flac  0.5900  gd87-06-12 s2t11 Black Peter.flac
     3:50.59       40710812 B   ---   --   ---xx   flac  0.6262  gd87-06-12 s2t12 Around & Around.flac
     6:59.68       74071580 B   ---   --   ---xx   flac  0.6351  gd87-06-12 s2t13 Good Lovin'.flac
     0:55.35        9784364 B   ---   --   ---xx   flac  0.4455  gd87-06-12 s2t14 Encore Break.flac
     6:07.34       64819756 B   -b-   --   ---xx   flac  0.6222  gd87-06-12 s2t15 Touch Of Grey.flac
   153:30.46     1624754236 B                            0.6175  (25 files)

No errors occured.


d44d5506415069d3da567f064c69a069 *gd87-06-12 s1t01 Tuning.flac
d5cc96055c6d0930ac596048aae80f9d *gd87-06-12 s1t02 Jack Straw.flac
eac9c8e1788c41c35935fb762dd42b04 *gd87-06-12 s1t03 West LA Fadeaway.flac
8084fedffdc02cde954a7b4b4ef28619 *gd87-06-12 s1t04 Mama Tried.flac
1d9e3ba16e0c0ee8aee140a36f976b38 *gd87-06-12 s1t05 Big River.flac
431bfb676aa982c11c5e7c575f1bf36a *gd87-06-12 s1t06 Candyman.flac
f9fbe3c1c066c8f84a6bd971a3bb4c01 *gd87-06-12 s1t07 My Brother Esau.flac
7924b342e717cf70043840ac4c3dd41c *gd87-06-12 s1t08 Bird Song.flac
cdb07e6c79daebc5633eda1aa8a84587 *gd87-06-12 s1t09 Desolation Row.flac
5ec5ba9931adec93c266ca390767cb11 *gd87-06-12 s1t10 Don't Ease Me In.flac
02154c47594548cae37e0980f4c19589 *gd87-06-12 s2t01 Tuning.flac
251787b1ed064d30f45d245866b5f8db *gd87-06-12 s2t02 China Cat Sunflower.flac
58df4147987968ca77770758b65fc857 *gd87-06-12 s2t03 I Know You Rider.flac
28a6f8eb66633b47a7b69bedf87834f3 *gd87-06-12 s2t04 Far From Me.flac
f0a08dee4daacc19132cf88af2d20e04 *gd87-06-12 s2t05 Man Smart (Woman Smarter).flac
6dc69373dbe6bcd23642084bcbb907ec *gd87-06-12 s2t06 He's Gone.flac
6fe231e694e1bfde6394b3793008ecb6 *gd87-06-12 s2t07 Drums.flac
79ff535fd0223ccdde899625d4cbc486 *gd87-06-12 s2t08 Space.flac
d2604c8bd9d29c7bf4b86664b80e342e *gd87-06-12 s2t09 The Wheel.flac
ae2561089c7480d1882cbc0054d4fc2c *gd87-06-12 s2t10 I Need A Miracle.flac
ba7a5f120cb08b8506cb77d493f29e4b *gd87-06-12 s2t11 Black Peter.flac
68e66aa64f49268ab47259ee39f37ebe *gd87-06-12 s2t12 Around & Around.flac
4b6b324565266dd8e1d472792936f925 *gd87-06-12 s2t13 Good Lovin'.flac
90f5a4fc19849c4e66e2a36589cc462f *gd87-06-12 s2t14 Encore Break.flac
c6a43719366d15bd6a76cd6274025435 *gd87-06-12 s2t15 Touch Of Grey.flac

No errors occured.



Show Checksums
ffp
gd87-06-12 s1t01 Tuning.flac:1f51e95e22cb2d4b03c60a123b3c783e
gd87-06-12 s1t02 Jack Straw.flac:0c45bb4d4c590d9cf6b857ecfcdc19cf
gd87-06-12 s1t03 West LA Fadeaway.flac:34d464fa71553e3ed0d160ecd615d0a6
gd87-06-12 s1t04 Mama Tried.flac:071e144fc4fc77298d1b19f220c1d52f
gd87-06-12 s1t05 Big River.flac:db006f6f1e9a173d9c73efb2515924e9
gd87-06-12 s1t06 Candyman.flac:ded6fcfe17729ad81d9966aac4c981ec
gd87-06-12 s1t07 My Brother Esau.flac:946643c388aabd04fef59854a7d8e17e
gd87-06-12 s1t08 Bird Song.flac:3dbf8b060ca48f2793f64ef94abc1766
gd87-06-12 s1t09 Desolation Row.flac:6e9e49bfd38b180d61d11b7e1464ac7f
gd87-06-12 s1t10 Don't Ease Me In.flac:e75d57664f7c3b4a271ced9aa553af1a
gd87-06-12 s2t01 Tuning.flac:5f6a88a7873197f58b9cf0b223d23619
gd87-06-12 s2t02 China Cat Sunflower.flac:6482ac1c34be729e44e8879b655a917e
gd87-06-12 s2t03 I Know You Rider.flac:d10f554a5d18f0f615e1388c8b991c4c
gd87-06-12 s2t04 Far From Me.flac:b2474e03fdaa121f2e8acb2aa7439edd
gd87-06-12 s2t05 Man Smart (Woman Smarter).flac:1c13e4a85f86851ead61c200067c19e1
gd87-06-12 s2t06 He's Gone.flac:ad7c24915a0fa6aa17912e60cba2a358
gd87-06-12 s2t07 Drums.flac:0bbfc276a23e17eb26945d068c18813a
gd87-06-12 s2t08 Space.flac:0e60a757af5bf35de5a51407757b8664
gd87-06-12 s2t09 The Wheel.flac:51d9f37cc34c151f08cededc8be8b1e2
gd87-06-12 s2t10 I Need A Miracle.flac:df7a4c7efe4942da8b61e877626bc1e9
gd87-06-12 s2t11 Black Peter.flac:0dc6f83c8c489d51abfa0abcc4a55685
gd87-06-12 s2t12 Around & Around.flac:45100f3d3232f1170e3e60e255382be3
gd87-06-12 s2t13 Good Lovin'.flac:14743b61f1db38ce1c0afb3ee404e35f
gd87-06-12 s2t14 Encore Break.flac:a5a4e9dbb75d652c60bffc521f7f24d2
gd87-06-12 s2t15 Touch Of Grey.flac:f98318fee77036e2c249b23d867cb134
flac-md5
d44d5506415069d3da567f064c69a069 *gd87-06-12 s1t01 Tuning.flac
d5cc96055c6d0930ac596048aae80f9d *gd87-06-12 s1t02 Jack Straw.flac
eac9c8e1788c41c35935fb762dd42b04 *gd87-06-12 s1t03 West LA Fadeaway.flac
8084fedffdc02cde954a7b4b4ef28619 *gd87-06-12 s1t04 Mama Tried.flac
1d9e3ba16e0c0ee8aee140a36f976b38 *gd87-06-12 s1t05 Big River.flac
431bfb676aa982c11c5e7c575f1bf36a *gd87-06-12 s1t06 Candyman.flac
f9fbe3c1c066c8f84a6bd971a3bb4c01 *gd87-06-12 s1t07 My Brother Esau.flac
7924b342e717cf70043840ac4c3dd41c *gd87-06-12 s1t08 Bird Song.flac
cdb07e6c79daebc5633eda1aa8a84587 *gd87-06-12 s1t09 Desolation Row.flac
5ec5ba9931adec93c266ca390767cb11 *gd87-06-12 s1t10 Don't Ease Me In.flac
02154c47594548cae37e0980f4c19589 *gd87-06-12 s2t01 Tuning.flac
251787b1ed064d30f45d245866b5f8db *gd87-06-12 s2t02 China Cat Sunflower.flac
58df4147987968ca77770758b65fc857 *gd87-06-12 s2t03 I Know You Rider.flac
28a6f8eb66633b47a7b69bedf87834f3 *gd87-06-12 s2t04 Far From Me.flac
f0a08dee4daacc19132cf88af2d20e04 *gd87-06-12 s2t05 Man Smart (Woman Smarter).flac
6dc69373dbe6bcd23642084bcbb907ec *gd87-06-12 s2t06 He's Gone.flac
6fe231e694e1bfde6394b3793008ecb6 *gd87-06-12 s2t07 Drums.flac
79ff535fd0223ccdde899625d4cbc486 *gd87-06-12 s2t08 Space.flac
d2604c8bd9d29c7bf4b86664b80e342e *gd87-06-12 s2t09 The Wheel.flac
ae2561089c7480d1882cbc0054d4fc2c *gd87-06-12 s2t10 I Need A Miracle.flac
ba7a5f120cb08b8506cb77d493f29e4b *gd87-06-12 s2t11 Black Peter.flac
68e66aa64f49268ab47259ee39f37ebe *gd87-06-12 s2t12 Around & Around.flac
4b6b324565266dd8e1d472792936f925 *gd87-06-12 s2t13 Good Lovin'.flac
b04c927c5a94c5e2e44b5b5aaea5582d *gd87-06-12 s2t14 Encore Break.flac
84af3ab51267ea4793819ee6a5412d9a *gd87-06-12 s2t15 Touch Of Grey.flac

Comments
Add Comment
Other Sources (comments)
FOB-AUD>MC>CDR; Beyer... (0) Master Soundboard Cassette... (0) Bertha Remaster of the... (0) flac16; Source:... (0) flac24/96; Taper:... (0) flac16; Recording... (0) flac24;... (0) flac24/96 ... (0)
Date User Comment
08/22/2018 cool_breeze For whatever reason, the FFP and MD5 files for this file set are incorrect.

The MD5 file should end with:

b04c927c5a94c5e2e44b5b5aaea5582d *gd87-06-12 s2t14 Encore Break.flac
84af3ab51267ea4793819ee6a5412d9a *gd87-06-12 s2t15 Touch Of Grey.flac

The FFP for s2t15 should be:

gd87-06-12 s2t15 Touch Of Grey.flac:f98318fee77036e2c249b23d867cb134
08/31/2018 Wharfrat73 Updated checksum files.