Browse Collections Artists Sources   Search Dates

Add Show    List Management    Help


Grateful Dead 05/15/81
Athletic Center - Rutgers University, Piscataway, NJ
Comments Add Comment    Source Collectors    Add to Collection    Add to Want List    History
Source # 142953 Other Sources
Entered by Matt Vernon
Checksums flac-md5 , ffp
Disc Counts 0 / 0
Media Size
Date Circulated
Date Added

08/16/2018
Source Summary flac16/48 Jim Wise's Master Audience Cassettes; Sennheiser 421 mics > Sony TC-D5 (Maxell UDXLII-C90)(located at the soundboard) Transfer Info: Master Cassettes (Nakamichi Dragon)> Tascam DA-3000 (DSF 1-bit/5.6 MHz) > dBpoweramp (24-bit/96 kHz) > Adobe Audition 3.01 (24-bit/96 kHz) > TLH flac2496. Mastered by Scott Clugston. 
  Archive
Source Information - Download Text | Download Zip
Grateful Dead
Athletic Center
Rutgers University
Piscataway, NJ
Friday May 15th, 1981

This is a 16/48 fileset. 24-bit > 16-bit via dBpoweramp

Jim Wise's Master Audience Cassettes; Sennheiser 421 mics > Sony TC-D5 (Maxell UDXLII-C90)(located at the soundboard)

Transfer Info:
Master Cassettes (Nakamichi Dragon)> Tascam DA-3000 (DSF 1-bit/5.6 MHz) > dBpoweramp (24-bit/96 kHz) > Adobe Audition 3.01 (24-bit/96 kHz) > TLH flac2496

Notes:
- Thanks to Jim Wise for recording the show and the fresh transcription of his audience master
- Thanks to Charlie Miller for coordinating this effort
- Thanks to Kenny Mance and Anne Cohen for the shnid30113 AKG CE-1 source which supplies a 0:10 patch at the beginning of "Don't Ease Me In", as well as a 4:23 patch in "Drums"
- Primary and patch sources pitch corrected

Mastered by Scott Clugston
August 2018

Set One:
s1t01 - Crowd
s1t02 - Mississippi Half-Step Uptown Toodeloo >
s1t03 - Franklin's Tower >
s1t04 - New Minglewood Blues
s1t05 - Dire Wolf
s1t06 - Cassidy
s1t07 - Candyman >
s1t08 - Little Red Rooster
s1t09 - Jack-A-Roe
s1t10 - El Paso
s1t11 - Ramble On Rose >
s1t12 - Looks Like Rain >
s1t13 - Don't Ease Me In

Set Two:
s2t01 - Crowd
s2t02 - Scarlet Begonias >
s2t03 - Fire On The Mountain >
s2t04 - Estimated Prophet >
s2t05 - Eyes Of The World >
s2t06 - Drums >
s2t07 - Space >
s2t08 - Not Fade Away >
s2t09 - Black Peter >
s2t10 - Sugar Magnolia
s2t11 - Encore Break
s2t12 - US Blues


    length     expanded size    cdr  WAVE problems  fmt   ratio  filename
     1:51.427      21393964 B   cxx   --   ---xx   flac  0.6219  gd81-05-15 s1t01 Crowd.flac
     8:55.147     102748204 B   cxx   --   ---xx   flac  0.6846  gd81-05-15 s1t02 Mississippi Half-Step Uptown Toodeloo.flac
    10:02.293     115640364 B   cxx   --   ---xx   flac  0.6967  gd81-05-15 s1t03 Franklin's Tower.flac
     7:16.520      83811884 B   cxx   --   ---xx   flac  0.6817  gd81-05-15 s1t04 New Minglewood Blues.flac
     3:34.000      41088044 B   cxx   --   ---xx   flac  0.6738  gd81-05-15 s1t05 Dire Wolf.flac
     5:38.640      65018924 B   cxx   --   ---xx   flac  0.6813  gd81-05-15 s1t06 Cassidy.flac
     7:07.827      82142764 B   cxx   --   ---xx   flac  0.6526  gd81-05-15 s1t07 Candyman.flac
     9:35.293     110456364 B   cxx   --   ---xx   flac  0.6714  gd81-05-15 s1t08 Little Red Rooster.flac
     5:01.027      57797164 B   cxx   --   ---xx   flac  0.6839  gd81-05-15 s1t09 Jack-A-Roe.flac
     5:36.653      64637484 B   cxx   --   ---xx   flac  0.6706  gd81-05-15 s1t10 El Paso.flac
     8:12.707      94599724 B   cxx   --   ---xx   flac  0.6725  gd81-05-15 s1t11 Ramble On Rose.flac
     8:45.413     100879404 B   cxx   --   ---xx   flac  0.6660  gd81-05-15 s1t12 Looks Like Rain.flac
     3:23.700      39110472 B   cxx   --   ---xx   flac  0.6791  gd81-05-15 s1t13 Don't Ease Me In.flac
     1:20.813      15516204 B   cxx   --   ---xx   flac  0.6013  gd81-05-15 s2t01 Crowd.flac
    11:29.800     132441644 B   cxx   --   ---xx   flac  0.6813  gd81-05-15 s2t02 Scarlet Begonias.flac
     8:35.920      99056684 B   cxx   --   ---xx   flac  0.6825  gd81-05-15 s2t03 Fire On The Mountain.flac
    11:44.000     135168044 B   cxx   --   ---xx   flac  0.6692  gd81-05-15 s2t04 Estimated Prophet.flac
    10:09.667     117056044 B   cxx   --   ---xx   flac  0.6773  gd81-05-15 s2t05 Eyes Of The World.flac
     5:14.627      60408364 B   cxx   --   ---xx   flac  0.5154  gd81-05-15 s2t06 Drums.flac
     5:12.453      59991084 B   cxx   --   ---xx   flac  0.6092  gd81-05-15 s2t07 Space.flac
     8:38.240      99502124 B   cxx   --   ---xx   flac  0.6756  gd81-05-15 s2t08 Not Fade Away.flac
     9:04.600     104563244 B   cxx   --   ---xx   flac  0.6386  gd81-05-15 s2t09 Black Peter.flac
     9:27.213     108905004 B   cxx   --   ---xx   flac  0.6856  gd81-05-15 s2t10 Sugar Magnolia.flac
     5:28.043      62984288 B   cxx   --   ---xx   flac  0.6710  gd81-05-15 s2t11 US Blues.flac
   171:26.023    1974917488 B                            0.6668  (24 files)

No errors occured.


70b41457ab8e9fec6853b0cf266fab62 *gd81-05-15 s1t01 Crowd.flac
dfefeb74996ceaa69cf87b9af7af93e5 *gd81-05-15 s1t02 Mississippi Half-Step Uptown Toodeloo.flac
bc71db468985815ffea6322b211239ab *gd81-05-15 s1t03 Franklin's Tower.flac
70f1205dafef1a9ea7856cdb8d9d29ca *gd81-05-15 s1t04 New Minglewood Blues.flac
7364d8d1fc78b4a25c5eb264f86035d4 *gd81-05-15 s1t05 Dire Wolf.flac
3a075582c6af08cf47e2807959b95b2d *gd81-05-15 s1t06 Cassidy.flac
e1fbc67a857a3951fd5ef64d161437b9 *gd81-05-15 s1t07 Candyman.flac
adec13a087489026f36456124701a665 *gd81-05-15 s1t08 Little Red Rooster.flac
37f3016e76b8e641d85b92ee9162af6c *gd81-05-15 s1t09 Jack-A-Roe.flac
0a2dc1d130c97646d6af9a68fd3bb35c *gd81-05-15 s1t10 El Paso.flac
aa051078049fc4f2595618282e354a77 *gd81-05-15 s1t11 Ramble On Rose.flac
9f1c1c843b5f7fa1e07d253e5f085b43 *gd81-05-15 s1t12 Looks Like Rain.flac
8f6893f879411d574926611db15f9549 *gd81-05-15 s1t13 Don't Ease Me In.flac
bbb9a3d3654f9814e31f55eee6dd0bc5 *gd81-05-15 s2t01 Crowd.flac
9cb71ba6a20fceb0e9ebd04f03f2b12b *gd81-05-15 s2t02 Scarlet Begonias.flac
4bbd1045f154ff0bd8c23daa3dc0d842 *gd81-05-15 s2t03 Fire On The Mountain.flac
589d71befeb7490815b800f4a22bd3d4 *gd81-05-15 s2t04 Estimated Prophet.flac
bb8fe05e05d4e48829a14b65bd072aad *gd81-05-15 s2t05 Eyes Of The World.flac
bbc6e7347de5114ed525a1eb8cc60a9f *gd81-05-15 s2t06 Drums.flac
6ea50c3fea0e49b178073d8aaff46860 *gd81-05-15 s2t07 Space.flac
24cd56683f18ff866654cbd6552419c4 *gd81-05-15 s2t08 Not Fade Away.flac
f7ad393c9f05cd48e87c4daff342f3f2 *gd81-05-15 s2t09 Black Peter.flac
ead7a130a194b39104e5ec6493b86f58 *gd81-05-15 s2t10 Sugar Magnolia.flac
8858313a82a71bb391fc85e9dcd60c94 *gd81-05-15 s2t11 US Blues.flac

No errors occured.




Show Checksums
flac-md5
70b41457ab8e9fec6853b0cf266fab62 *gd81-05-15 s1t01 Crowd.flac
dfefeb74996ceaa69cf87b9af7af93e5 *gd81-05-15 s1t02 Mississippi Half-Step Uptown Toodeloo.flac
bc71db468985815ffea6322b211239ab *gd81-05-15 s1t03 Franklin's Tower.flac
70f1205dafef1a9ea7856cdb8d9d29ca *gd81-05-15 s1t04 New Minglewood Blues.flac
7364d8d1fc78b4a25c5eb264f86035d4 *gd81-05-15 s1t05 Dire Wolf.flac
3a075582c6af08cf47e2807959b95b2d *gd81-05-15 s1t06 Cassidy.flac
e1fbc67a857a3951fd5ef64d161437b9 *gd81-05-15 s1t07 Candyman.flac
adec13a087489026f36456124701a665 *gd81-05-15 s1t08 Little Red Rooster.flac
37f3016e76b8e641d85b92ee9162af6c *gd81-05-15 s1t09 Jack-A-Roe.flac
0a2dc1d130c97646d6af9a68fd3bb35c *gd81-05-15 s1t10 El Paso.flac
aa051078049fc4f2595618282e354a77 *gd81-05-15 s1t11 Ramble On Rose.flac
9f1c1c843b5f7fa1e07d253e5f085b43 *gd81-05-15 s1t12 Looks Like Rain.flac
8f6893f879411d574926611db15f9549 *gd81-05-15 s1t13 Don't Ease Me In.flac
bbb9a3d3654f9814e31f55eee6dd0bc5 *gd81-05-15 s2t01 Crowd.flac
9cb71ba6a20fceb0e9ebd04f03f2b12b *gd81-05-15 s2t02 Scarlet Begonias.flac
4bbd1045f154ff0bd8c23daa3dc0d842 *gd81-05-15 s2t03 Fire On The Mountain.flac
589d71befeb7490815b800f4a22bd3d4 *gd81-05-15 s2t04 Estimated Prophet.flac
bb8fe05e05d4e48829a14b65bd072aad *gd81-05-15 s2t05 Eyes Of The World.flac
bbc6e7347de5114ed525a1eb8cc60a9f *gd81-05-15 s2t06 Drums.flac
6ea50c3fea0e49b178073d8aaff46860 *gd81-05-15 s2t07 Space.flac
24cd56683f18ff866654cbd6552419c4 *gd81-05-15 s2t08 Not Fade Away.flac
f7ad393c9f05cd48e87c4daff342f3f2 *gd81-05-15 s2t09 Black Peter.flac
ead7a130a194b39104e5ec6493b86f58 *gd81-05-15 s2t10 Sugar Magnolia.flac
8858313a82a71bb391fc85e9dcd60c94 *gd81-05-15 s2t11 US Blues.flac
ffp
gd81-05-15 s1t01 Crowd.flac:f8f1046fe93ed4afdc20a2a8223114eb
gd81-05-15 s1t02 Mississippi Half-Step Uptown Toodeloo.flac:c38e352ae2ca3905054ec9a7525a941b
gd81-05-15 s1t03 Franklin's Tower.flac:75fb67d3c2d164284b4d7c7c86aea55f
gd81-05-15 s1t04 New Minglewood Blues.flac:a0b273ade3064f0be4fb178fe5b19bc5
gd81-05-15 s1t05 Dire Wolf.flac:1da1707f97005bf1c97b0aab4f309f0a
gd81-05-15 s1t06 Cassidy.flac:6c3d17cae2df30cfd2409941372920e7
gd81-05-15 s1t07 Candyman.flac:9cd5295972cea358ec6814999d0c7af2
gd81-05-15 s1t08 Little Red Rooster.flac:dfa2a096022ce0afe3bdd7bbef32a3e9
gd81-05-15 s1t09 Jack-A-Roe.flac:0fdfe1e31cb1276514ce1068df27d55b
gd81-05-15 s1t10 El Paso.flac:f431f863df02a520fe068e9bc333ad34
gd81-05-15 s1t11 Ramble On Rose.flac:0882559535d653166ec3c58edea1dd51
gd81-05-15 s1t12 Looks Like Rain.flac:1c5f737f0f11366594ed69217f697211
gd81-05-15 s1t13 Don't Ease Me In.flac:b8fd0846dad6911591f97ee603ecee46
gd81-05-15 s2t01 Crowd.flac:9845612ea6b787b97d5f007f03f52a8c
gd81-05-15 s2t02 Scarlet Begonias.flac:92451ef2b63a9484c2ac8744af0ed422
gd81-05-15 s2t03 Fire On The Mountain.flac:1ce79a116a3312688a002c936135c4bb
gd81-05-15 s2t04 Estimated Prophet.flac:4f4ade4c70e882d7f4894e203c25dff6
gd81-05-15 s2t05 Eyes Of The World.flac:95bd297c5884cbdb9eb7c63af8e56675
gd81-05-15 s2t06 Drums.flac:8a220d3e049989ddac9713e08e5876ed
gd81-05-15 s2t07 Space.flac:d95e017ee82ad80f4fab9d3a5dd39dd1
gd81-05-15 s2t08 Not Fade Away.flac:3c29c6ae33fd3e0b18351b4ea3a80952
gd81-05-15 s2t09 Black Peter.flac:760c2882ebc1368f3e533f0840bc9693
gd81-05-15 s2t10 Sugar Magnolia.flac:f3f9c55d4ac1ddcc7e1c949b6720ef81
gd81-05-15 s2t11 US Blues.flac:6f91ac76e9a72fc3aee2892c99493dfb

Comments
Add Comment
Other Sources (comments)
(FOB) Senn 421> Cm> Dat>... (0) MAC>DAT>CD. Recording by... (0) flac16; Recording... (1) flac16; Recording... (0) flac16; 2 source... (0) flac24/96 Jim... (0)
Date User Comment