Browse Collections Artists Sources   Search Dates

Add Show    List Management    Help


Grateful Dead 05/15/81
Athletic Center - Rutgers University, Piscataway, NJ
Comments Add Comment    Source Collectors    Add to Collection    Add to Want List    History
Source # 142954 Other Sources
Entered by Matt Vernon
Checksums flac-md5 , ffp
Disc Counts 0 / 0
Media Size
Date Circulated
Date Added

08/16/2018
Source Summary flac24/96 Jim Wise's Master Audience Cassettes; Sennheiser 421 mics > Sony TC-D5 (Maxell UDXLII-C90)(located at the soundboard) Transfer Info: Master Cassettes (Nakamichi Dragon)> Tascam DA-3000 (DSF 1-bit/5.6 MHz) > dBpoweramp (24-bit/96 kHz) > Adobe Audition 3.01 (24-bit/96 kHz) > TLH flac2496. Mastering by Scott Clugston. 
  Archive
Source Information - Download Text | Download Zip
Grateful Dead
Athletic Center
Rutgers University
Piscataway, NJ
Friday May 15th, 1981

Jim Wise's Master Audience Cassettes; Sennheiser 421 mics > Sony TC-D5 (Maxell UDXLII-C90)(located at the soundboard)

Transfer Info:
Master Cassettes (Nakamichi Dragon)> Tascam DA-3000 (DSF 1-bit/5.6 MHz) > dBpoweramp (24-bit/96 kHz) > Adobe Audition 3.01 (24-bit/96 kHz) > TLH flac2496

Notes:
- Thanks to Jim Wise for recording the show and the fresh transcription of his audience master
- Thanks to Charlie Miller for coordinating this effort
- Thanks to Kenny Mance and Anne Cohen for the shnid30113 AKG CE-1 source which supplies a 0:10 patch at the beginning of "Don't Ease Me In", as well as a 4:23 patch in "Drums"
- Primary and patch sources pitch corrected

Mastered by Scott Clugston
August 2018

Set One:
s1t01 - Crowd
s1t02 - Mississippi Half-Step Uptown Toodeloo >
s1t03 - Franklin's Tower >
s1t04 - New Minglewood Blues
s1t05 - Dire Wolf
s1t06 - Cassidy
s1t07 - Candyman >
s1t08 - Little Red Rooster
s1t09 - Jack-A-Roe
s1t10 - El Paso
s1t11 - Ramble On Rose >
s1t12 - Looks Like Rain >
s1t13 - Don't Ease Me In

Set Two:
s2t01 - Crowd
s2t02 - Scarlet Begonias >
s2t03 - Fire On The Mountain >
s2t04 - Estimated Prophet >
s2t05 - Eyes Of The World >
s2t06 - Drums >
s2t07 - Space >
s2t08 - Not Fade Away >
s2t09 - Black Peter >
s2t10 - Sugar Magnolia
        Encore:
s2t11 - US Blues


    length     expanded size    cdr  WAVE problems  fmt   ratio  filename
     1:51.427      64181804 B   cxx   --   ---xx   flac  0.7225  gd81-05-15 s1t01 Crowd.flac
     8:55.147     308244524 B   cxx   --   ---xx   flac  0.7564  gd81-05-15 s1t02 Mississippi Half-Step Uptown Toodeloo.flac
    10:02.293     346921004 B   cxx   --   ---xx   flac  0.7552  gd81-05-15 s1t03 Franklin's Tower.flac
     7:16.520     251435564 B   cxx   --   ---xx   flac  0.7495  gd81-05-15 s1t04 New Minglewood Blues.flac
     3:34.000     123264044 B   cxx   --   ---xx   flac  0.7470  gd81-05-15 s1t05 Dire Wolf.flac
     5:38.640     195056684 B   cxx   --   ---xx   flac  0.7494  gd81-05-15 s1t06 Cassidy.flac
     7:07.827     246428204 B   cxx   --   ---xx   flac  0.7386  gd81-05-15 s1t07 Candyman.flac
     9:35.293     331369004 B   cxx   --   ---xx   flac  0.7445  gd81-05-15 s1t08 Little Red Rooster.flac
     5:01.027     173391404 B   cxx   --   ---xx   flac  0.7517  gd81-05-15 s1t09 Jack-A-Roe.flac
     5:36.653     193912364 B   cxx   --   ---xx   flac  0.7485  gd81-05-15 s1t10 El Paso.flac
     8:12.707     283799084 B   cxx   --   ---xx   flac  0.7483  gd81-05-15 s1t11 Ramble On Rose.flac
     8:45.413     302638124 B   cxx   --   ---xx   flac  0.7453  gd81-05-15 s1t12 Looks Like Rain.flac
     3:23.700     117331334 B   cxx   --   ---xx   flac  0.7396  gd81-05-15 s1t13 Don't Ease Me In.flac
     1:20.813      46548524 B   cxx   --   ---xx   flac  0.7238  gd81-05-15 s2t01 Crowd.flac
    11:29.800     397324844 B   cxx   --   ---xx   flac  0.7501  gd81-05-15 s2t02 Scarlet Begonias.flac
     8:35.920     297169964 B   cxx   --   ---xx   flac  0.7503  gd81-05-15 s2t03 Fire On The Mountain.flac
    11:44.000     405504044 B   cxx   --   ---xx   flac  0.7460  gd81-05-15 s2t04 Estimated Prophet.flac
    10:09.667     351168044 B   cxx   --   ---xx   flac  0.7488  gd81-05-15 s2t05 Eyes Of The World.flac
     5:14.627     181225004 B   cxx   --   ---xx   flac  0.5737  gd81-05-15 s2t06 Drums.flac
     5:12.453     179973164 B   cxx   --   ---xx   flac  0.7246  gd81-05-15 s2t07 Space.flac
     8:38.240     298506284 B   cxx   --   ---xx   flac  0.7496  gd81-05-15 s2t08 Not Fade Away.flac
     9:04.600     313689644 B   cxx   --   ---xx   flac  0.7363  gd81-05-15 s2t09 Black Peter.flac
     9:27.213     326714924 B   cxx   --   ---xx   flac  0.7482  gd81-05-15 s2t10 Sugar Magnolia.flac
     5:28.043     188952776 B   cxx   --   ---xx   flac  0.7431  gd81-05-15 s2t11 US Blues.flac
   171:26.023    5924750358 B                            0.7412  (24 files)

No errors occured.


6bd41e170b70ef3f871e2459aa878bf9 *gd81-05-15 s1t01 Crowd.flac
826a3aee37419eadc64995a14825daab *gd81-05-15 s1t02 Mississippi Half-Step Uptown Toodeloo.flac
4b3d8fe28dd86ac04121119bc5b61b5d *gd81-05-15 s1t03 Franklin's Tower.flac
a228369af177eae745c6f2e143dbaf02 *gd81-05-15 s1t04 New Minglewood Blues.flac
690b1fdb4e30554cb29b855f9ecf5f32 *gd81-05-15 s1t05 Dire Wolf.flac
7af70cd7b30bc3f8d13b20732682abee *gd81-05-15 s1t06 Cassidy.flac
1ed059e54e0815f06aee6bf49b7b228d *gd81-05-15 s1t07 Candyman.flac
2d8f53237924ba4c1f8ff5970e477f89 *gd81-05-15 s1t08 Little Red Rooster.flac
236921d08b629125b87f0ccb42e28a1f *gd81-05-15 s1t09 Jack-A-Roe.flac
a8cfcf02a4031e60eeb8d20930b78cf1 *gd81-05-15 s1t10 El Paso.flac
3823f21104be36079907e7e77d0e38d3 *gd81-05-15 s1t11 Ramble On Rose.flac
809649a42fa0fad69358acf6d27674b5 *gd81-05-15 s1t12 Looks Like Rain.flac
869b93b2a017e5978e2cf971219579a2 *gd81-05-15 s1t13 Don't Ease Me In.flac
176ba26e8ba80c8bf76bfd73261f12a6 *gd81-05-15 s2t01 Crowd.flac
ac1e98e6861f61f1d80559583d17d61d *gd81-05-15 s2t02 Scarlet Begonias.flac
3a0b80d6d6ce91e96f7febe383db0a41 *gd81-05-15 s2t03 Fire On The Mountain.flac
943d2b295bce84685a0f702ca49f6792 *gd81-05-15 s2t04 Estimated Prophet.flac
377dd85f723df96870ae98f80b897d07 *gd81-05-15 s2t05 Eyes Of The World.flac
53988a07e98bea1b178efd4838a3a389 *gd81-05-15 s2t06 Drums.flac
78ffd72fe0962b939e47d871e961c524 *gd81-05-15 s2t07 Space.flac
06e4aa300f1878d9f1d35fc9f34d882c *gd81-05-15 s2t08 Not Fade Away.flac
d3e303e6ca0bf3868006e854ee22496b *gd81-05-15 s2t09 Black Peter.flac
f0e14f88ae6b91054bbe110cf36352e0 *gd81-05-15 s2t10 Sugar Magnolia.flac
453a66d9c06b24b760ffc5bcaebbbac5 *gd81-05-15 s2t11 US Blues.flac

No errors occured.







Show Checksums
flac-md5
6bd41e170b70ef3f871e2459aa878bf9 *gd81-05-15 s1t01 Crowd.flac
826a3aee37419eadc64995a14825daab *gd81-05-15 s1t02 Mississippi Half-Step Uptown Toodeloo.flac
4b3d8fe28dd86ac04121119bc5b61b5d *gd81-05-15 s1t03 Franklin's Tower.flac
a228369af177eae745c6f2e143dbaf02 *gd81-05-15 s1t04 New Minglewood Blues.flac
690b1fdb4e30554cb29b855f9ecf5f32 *gd81-05-15 s1t05 Dire Wolf.flac
7af70cd7b30bc3f8d13b20732682abee *gd81-05-15 s1t06 Cassidy.flac
1ed059e54e0815f06aee6bf49b7b228d *gd81-05-15 s1t07 Candyman.flac
2d8f53237924ba4c1f8ff5970e477f89 *gd81-05-15 s1t08 Little Red Rooster.flac
236921d08b629125b87f0ccb42e28a1f *gd81-05-15 s1t09 Jack-A-Roe.flac
a8cfcf02a4031e60eeb8d20930b78cf1 *gd81-05-15 s1t10 El Paso.flac
3823f21104be36079907e7e77d0e38d3 *gd81-05-15 s1t11 Ramble On Rose.flac
809649a42fa0fad69358acf6d27674b5 *gd81-05-15 s1t12 Looks Like Rain.flac
869b93b2a017e5978e2cf971219579a2 *gd81-05-15 s1t13 Don't Ease Me In.flac
176ba26e8ba80c8bf76bfd73261f12a6 *gd81-05-15 s2t01 Crowd.flac
ac1e98e6861f61f1d80559583d17d61d *gd81-05-15 s2t02 Scarlet Begonias.flac
3a0b80d6d6ce91e96f7febe383db0a41 *gd81-05-15 s2t03 Fire On The Mountain.flac
943d2b295bce84685a0f702ca49f6792 *gd81-05-15 s2t04 Estimated Prophet.flac
377dd85f723df96870ae98f80b897d07 *gd81-05-15 s2t05 Eyes Of The World.flac
53988a07e98bea1b178efd4838a3a389 *gd81-05-15 s2t06 Drums.flac
78ffd72fe0962b939e47d871e961c524 *gd81-05-15 s2t07 Space.flac
06e4aa300f1878d9f1d35fc9f34d882c *gd81-05-15 s2t08 Not Fade Away.flac
d3e303e6ca0bf3868006e854ee22496b *gd81-05-15 s2t09 Black Peter.flac
f0e14f88ae6b91054bbe110cf36352e0 *gd81-05-15 s2t10 Sugar Magnolia.flac
453a66d9c06b24b760ffc5bcaebbbac5 *gd81-05-15 s2t11 US Blues.flac
ffp
gd81-05-15 s1t01 Crowd.flac:c8bd4d3a9a708c7d725d0dfc5402e6a1
gd81-05-15 s1t02 Mississippi Half-Step Uptown Toodeloo.flac:a9b578f24dbe714ae744d74f7386d4ca
gd81-05-15 s1t03 Franklin's Tower.flac:fd4698af5412bb3c74194f918a4bc258
gd81-05-15 s1t04 New Minglewood Blues.flac:1f7cd8e4b129e5c8539f066fd1ef625a
gd81-05-15 s1t05 Dire Wolf.flac:b764e164f4de65bf3e518e791baa4e21
gd81-05-15 s1t06 Cassidy.flac:39eada44d86b184353860f907d62208d
gd81-05-15 s1t07 Candyman.flac:68b6967c9cf2378c6aeff01476239aa0
gd81-05-15 s1t08 Little Red Rooster.flac:f1adec4a728655358dbef57b78f514b2
gd81-05-15 s1t09 Jack-A-Roe.flac:ee183b99797f43b11fa0d7197638854a
gd81-05-15 s1t10 El Paso.flac:535521f5f832543c3251d27f22cbba61
gd81-05-15 s1t11 Ramble On Rose.flac:f47a712d27dd72a8ff0fdc88bf22ff3c
gd81-05-15 s1t12 Looks Like Rain.flac:7eed2a8e3c8c96ce39bdfe234cea063a
gd81-05-15 s1t13 Don't Ease Me In.flac:bbd05bb685d2f5ca995ad6d53427612a
gd81-05-15 s2t01 Crowd.flac:c23a4cc8262c23735affdad761572800
gd81-05-15 s2t02 Scarlet Begonias.flac:7343ec9ccdb54fcf85da9d54c4fdb90b
gd81-05-15 s2t03 Fire On The Mountain.flac:6866f3fb50ec72d7b297829fbd7e8f39
gd81-05-15 s2t04 Estimated Prophet.flac:90a6f82d67539e5d867fd4d339c0d504
gd81-05-15 s2t05 Eyes Of The World.flac:fb8759d8a5de9e2ad8ed252fe1cc90f5
gd81-05-15 s2t06 Drums.flac:b36beb26ae7f70876e4aa5b08bf0f737
gd81-05-15 s2t07 Space.flac:714bedff73400ddf3b436e008b3f8c8f
gd81-05-15 s2t08 Not Fade Away.flac:8db5eddb439f3e5674a68c65cd563a77
gd81-05-15 s2t09 Black Peter.flac:8927cca18d8b7b1fd3fb841646706b5b
gd81-05-15 s2t10 Sugar Magnolia.flac:1718ba5804fafe7684f1100126769ccd
gd81-05-15 s2t11 US Blues.flac:34f82ce3f6962297f99933d0799799ec

Comments
Add Comment
Other Sources (comments)
(FOB) Senn 421> Cm> Dat>... (0) MAC>DAT>CD. Recording by... (0) flac16; Recording... (1) flac16; Recording... (0) flac16; 2 source... (0) flac16/48 Jim... (0)
Date User Comment