Browse Collections Artists Sources   Search Dates

Add Show    List Management    Help


Grateful Dead 08/12/81
Salt Palace, Salt Lake City, UT
Comments Add Comment    Source Collectors    Add to Collection    Add to Want List    History
Source # 142955 Other Sources
Entered by Matt Vernon
Checksums flac-md5 , ffp
Disc Counts 0 / 0
Media Size
Date Circulated
Date Added

08/16/2018
Source Summary flac16/48 Source Info: Dan Healy's Master Soundboard Cassettes (Sony TC-D5M/TDK MA-R90/Dolby B)> Frank Streeter's 1st generation 1/4 track Reels @ 3.75 ips (Sony TC770/Maxell UD35-90B) Transfer Info: 1st generation Reels (Technics RS-1506)> Tascam DA-3000 (DSF 1bit/5.6 MHz) > dBpoweramp 24/96 > Adobe Audition 3.01 > TLH flac2496. Mastered by Scott Clugston. 
  Archive
Source Information - Download Text | Download Zip
Grateful Dead
Salt Palace
Salt Lake City, UT
Wednesday August 12th, 1981

This is a 16/48 fileset. 24-bit > 16-bit via dBpoweramp

Source Info:
Dan Healy's Master Soundboard Cassettes (Sony TC-D5M/TDK MA-R90/Dolby B)> Frank Streeter's 1st generation 1/4 track Reels @ 3.75 ips (Sony TC770/Maxell UD35-90B)

Transfer Info:
1st generation Reels (Technics RS-1506)> Tascam DA-3000 (DSF 1bit/5.6 MHz) > dBpoweramp 24/96 > Adobe Audition 3.01 > TLH flac2496

Notes:
- Thanks to Frank Streeter for the 1st generation reels
- Thanks to Matt Smith for the transfer
- Thanks to Charlie Miller for coordinating this effort
- Thanks to Matt Smith for the audience source which supplies "Alabama Getaway > Greatest Story Ever Told", the first 0:39 of "Friend Of The Devil", a 0:27 patch in "Lost Sailor", from 0:24 of "Estimated Prophet" thru the first 4:00 of "Eyes Of The World", as well as from 2:38 of "Around & Around" thru the first 0:10 of "Good Lovin'
- Thanks to SIRMick for the shnid95346 audience source which supplies a 0:31 patch in the "Estimated Prophet > Eyes Of The World" transition
- Thanks to Charlie Miller and Rob Eaton for the shnid139593 soundboard source which supplies the end of "Truckin'", "Morning Dew" and the first 2:40 of "Around & Around", as well as from 0:10 of "Good Lovin'" thru the end of the show
- There's some hi-hat/cymbals distortion in the left channel at spots throughout the show (also present on shnid139593)
- Spanish Jam space included in "Spanish Jam"
- Pitch corrected

Mastered by Scott Clugston
August 2018

Set One:
s1t01 - Alabama Getaway >
s1t02 - Greatest Story Ever Told
s1t03 - Friend Of The Devil
s1t04 - Mama Tried >
s1t05 - Mexicali Blues
s1t06 - Jack-A-Roe >
s1t07 - CC Rider
s1t08 - Althea >
s1t09 - Lost Sailor >
s1t10 - Saint Of Circumstance

Set Two:
s2t01 - Tuning
s2t02 - Might As Well >
s2t03 - Man Smart (Woman Smarter)
s2t04 - Scarlet Begonias >
s2t05 - Fire On The Mountain
s2t06 - Estimated Prophet >
s2t07 - Eyes Of The World >
s2t08 - Drums >
s2t09 - Space >
s2t10 - Spanish Jam >
s2t11 - Truckin' >
s2t12 - Morning Dew >
s2t13 - Around & Around >
s2t14 - Good Lovin'
s2t15 - Encore Break
s2t16 - US Blues


    length     expanded size    cdr  WAVE problems  fmt   ratio  filename
     5:02.427      58065964 B   cxx   --   ---xx   flac  0.6329  gd81-08-12 s1t01 Alabama Getaway.flac
     4:32.667      52352044 B   cxx   --   ---xx   flac  0.6338  gd81-08-12 s1t02 Greatest Story Ever Told.flac
    10:51.720     125130284 B   cxx   --   ---xx   flac  0.6090  gd81-08-12 s1t03 Friend Of The Devil.flac
     2:29.373      28679724 B   cxx   --   ---xx   flac  0.6605  gd81-08-12 s1t04 Mama Tried.flac
     6:30.307      74938924 B   cxx   --   ---xx   flac  0.5960  gd81-08-12 s1t05 Mexicali Blues.flac
     4:46.733      55052844 B   cxx   --   ---xx   flac  0.5760  gd81-08-12 s1t06 Jack-A-Roe.flac
     9:07.960     105208364 B   cxx   --   ---xx   flac  0.5521  gd81-08-12 s1t07 CC Rider.flac
     9:39.720     111306284 B   cxx   --   ---xx   flac  0.5637  gd81-08-12 s1t08 Althea.flac
     6:59.280      80501804 B   cxx   --   ---xx   flac  0.5529  gd81-08-12 s1t09 Lost Sailor.flac
     6:54.435      79571660 B   cxx   --   ---xx   flac  0.5975  gd81-08-12 s1t10 Saint Of Circumstance.flac
     1:11.107      13652524 B   cxx   --   ---xx   flac  0.4323  gd81-08-12 s2t01 Tuning.flac
     4:16.533      49254444 B   cxx   --   ---xx   flac  0.6545  gd81-08-12 s2t02 Might As Well.flac
     7:01.040      80839724 B   cxx   --   ---xx   flac  0.6573  gd81-08-12 s2t03 Man Smart (Woman Smarter).flac
    11:29.987     132477484 B   cxx   --   ---xx   flac  0.7009  gd81-08-12 s2t04 Scarlet Begonias.flac
    12:09.533     140070444 B   cxx   --   ---xx   flac  0.6705  gd81-08-12 s2t05 Fire On The Mountain.flac
    11:19.773     130516524 B   cxx   --   ---xx   flac  0.6615  gd81-08-12 s2t06 Estimated Prophet.flac
    12:47.627     147384364 B   cxx   --   ---xx   flac  0.6862  gd81-08-12 s2t07 Eyes Of The World.flac
    10:06.787     116503084 B   cxx   --   ---xx   flac  0.5367  gd81-08-12 s2t08 Drums.flac
     2:39.053      30538284 B   cxx   --   ---xx   flac  0.5692  gd81-08-12 s2t09 Space.flac
     3:20.227      38443564 B   cxx   --   ---xx   flac  0.6251  gd81-08-12 s2t10 Spanish Jam.flac
     8:00.093      92177964 B   cxx   --   ---xx   flac  0.6876  gd81-08-12 s2t11 Truckin'.flac
    11:25.427     131601964 B   cxx   --   ---xx   flac  0.5793  gd81-08-12 s2t12 Morning Dew.flac
     3:57.147      45532204 B   cxx   --   ---xx   flac  0.6139  gd81-08-12 s2t13 Around & Around.flac
     7:40.707      88455724 B   cxx   --   ---xx   flac  0.6216  gd81-08-12 s2t14 Good Lovin'.flac
     1:25.013      16322604 B   cxx   --   ---xx   flac  0.5123  gd81-08-12 s2t15 Encore Break.flac
     5:09.682      59458968 B   cxx   --   ---xx   flac  0.6039  gd81-08-12 s2t16 US Blues.flac
   180:54.357    2084037764 B                            0.6193  (26 files)

No errors occured.


f08ab6bc9cb6de4b6a2dd9bb8285ab26 *gd81-08-12 s1t01 Alabama Getaway.flac
65535cfbf5752445acc4f9c0be26c97d *gd81-08-12 s1t02 Greatest Story Ever Told.flac
6877097eef7f838a594bdf4a2e32da2d *gd81-08-12 s1t03 Friend Of The Devil.flac
78286d6df53c0de95fade2ec100fa6f3 *gd81-08-12 s1t04 Mama Tried.flac
80a0ec3f523a835e026509d58012910f *gd81-08-12 s1t05 Mexicali Blues.flac
5d4dc97b75ef716e76de0bb0883fbac6 *gd81-08-12 s1t06 Jack-A-Roe.flac
d96cfaeded1a73f42702bf283c11750b *gd81-08-12 s1t07 CC Rider.flac
31ef66122a2adefcabb80d5c78150e8d *gd81-08-12 s1t08 Althea.flac
2fc01c9a23b8507056639f49fdd91740 *gd81-08-12 s1t09 Lost Sailor.flac
ca03340b2e051f55cf91debf93826225 *gd81-08-12 s1t10 Saint Of Circumstance.flac
988c3e9e42888418d95bbbe22315df26 *gd81-08-12 s2t01 Tuning.flac
f6ccce56c6dbd1d32d954e1145f68596 *gd81-08-12 s2t02 Might As Well.flac
de9abba10d19fcd3ecadf84a5f45c941 *gd81-08-12 s2t03 Man Smart (Woman Smarter).flac
5cfdbdf5e9b711b2b3ac2c0ba37abcc6 *gd81-08-12 s2t04 Scarlet Begonias.flac
a88ee55bc6d420c7658d57d7168c9dd0 *gd81-08-12 s2t05 Fire On The Mountain.flac
97cfba10c55c27064a141a1f84646905 *gd81-08-12 s2t06 Estimated Prophet.flac
85eec8d8a6a1490c5fd16734a1894054 *gd81-08-12 s2t07 Eyes Of The World.flac
f52ba0456d3955a07e6ba99d2bd8c616 *gd81-08-12 s2t08 Drums.flac
abb1766a6e36745562c2aad4d79cb1ef *gd81-08-12 s2t09 Space.flac
85be59dd2455f87d3e7733841cdd016d *gd81-08-12 s2t10 Spanish Jam.flac
ab1c8385d2dee79a221d92e961150989 *gd81-08-12 s2t11 Truckin'.flac
3d70d57f9a125c5ce4db7dfdf749fb14 *gd81-08-12 s2t12 Morning Dew.flac
d4be4c11754f19937ebbe7a1c223a3df *gd81-08-12 s2t13 Around & Around.flac
aa463bda985b30f91a1f35c2a3c980f5 *gd81-08-12 s2t14 Good Lovin'.flac
23cf6f1ef5e167825e1b45f627a1f4e6 *gd81-08-12 s2t15 Encore Break.flac
0a2774b1c1f202eff4bfd3bd3eb75007 *gd81-08-12 s2t16 US Blues.flac

No errors occured.




Show Checksums
flac-md5
f08ab6bc9cb6de4b6a2dd9bb8285ab26 *gd81-08-12 s1t01 Alabama Getaway.flac
65535cfbf5752445acc4f9c0be26c97d *gd81-08-12 s1t02 Greatest Story Ever Told.flac
6877097eef7f838a594bdf4a2e32da2d *gd81-08-12 s1t03 Friend Of The Devil.flac
78286d6df53c0de95fade2ec100fa6f3 *gd81-08-12 s1t04 Mama Tried.flac
80a0ec3f523a835e026509d58012910f *gd81-08-12 s1t05 Mexicali Blues.flac
5d4dc97b75ef716e76de0bb0883fbac6 *gd81-08-12 s1t06 Jack-A-Roe.flac
d96cfaeded1a73f42702bf283c11750b *gd81-08-12 s1t07 CC Rider.flac
31ef66122a2adefcabb80d5c78150e8d *gd81-08-12 s1t08 Althea.flac
2fc01c9a23b8507056639f49fdd91740 *gd81-08-12 s1t09 Lost Sailor.flac
ca03340b2e051f55cf91debf93826225 *gd81-08-12 s1t10 Saint Of Circumstance.flac
988c3e9e42888418d95bbbe22315df26 *gd81-08-12 s2t01 Tuning.flac
f6ccce56c6dbd1d32d954e1145f68596 *gd81-08-12 s2t02 Might As Well.flac
de9abba10d19fcd3ecadf84a5f45c941 *gd81-08-12 s2t03 Man Smart (Woman Smarter).flac
5cfdbdf5e9b711b2b3ac2c0ba37abcc6 *gd81-08-12 s2t04 Scarlet Begonias.flac
a88ee55bc6d420c7658d57d7168c9dd0 *gd81-08-12 s2t05 Fire On The Mountain.flac
97cfba10c55c27064a141a1f84646905 *gd81-08-12 s2t06 Estimated Prophet.flac
85eec8d8a6a1490c5fd16734a1894054 *gd81-08-12 s2t07 Eyes Of The World.flac
f52ba0456d3955a07e6ba99d2bd8c616 *gd81-08-12 s2t08 Drums.flac
abb1766a6e36745562c2aad4d79cb1ef *gd81-08-12 s2t09 Space.flac
85be59dd2455f87d3e7733841cdd016d *gd81-08-12 s2t10 Spanish Jam.flac
ab1c8385d2dee79a221d92e961150989 *gd81-08-12 s2t11 Truckin'.flac
3d70d57f9a125c5ce4db7dfdf749fb14 *gd81-08-12 s2t12 Morning Dew.flac
d4be4c11754f19937ebbe7a1c223a3df *gd81-08-12 s2t13 Around & Around.flac
aa463bda985b30f91a1f35c2a3c980f5 *gd81-08-12 s2t14 Good Lovin'.flac
23cf6f1ef5e167825e1b45f627a1f4e6 *gd81-08-12 s2t15 Encore Break.flac
0a2774b1c1f202eff4bfd3bd3eb75007 *gd81-08-12 s2t16 US Blues.flac
ffp
gd81-08-12 s1t01 Alabama Getaway.flac:006363521009206ec5b439e29a1d2deb
gd81-08-12 s1t02 Greatest Story Ever Told.flac:2d939657ed5b623bc54f27e717bc11ae
gd81-08-12 s1t03 Friend Of The Devil.flac:c8de35daf4c970eb7ba191dbb053e09a
gd81-08-12 s1t04 Mama Tried.flac:e799fa38c2f3335b235d82597da986c1
gd81-08-12 s1t05 Mexicali Blues.flac:a04f418f951f7d06d365fba28e15fe96
gd81-08-12 s1t06 Jack-A-Roe.flac:a02165c428e9e3c3292d968fc0fb3f5a
gd81-08-12 s1t07 CC Rider.flac:ff67e24bd623d6d2975f670e1de0b59b
gd81-08-12 s1t08 Althea.flac:fa6afc8158c5ae36e90bafc308f47998
gd81-08-12 s1t09 Lost Sailor.flac:4a23a6cf884cd4542a2333420fac1a60
gd81-08-12 s1t10 Saint Of Circumstance.flac:65a5a830c15f417929667dc300edc731
gd81-08-12 s2t01 Tuning.flac:1de4f1464b86a0f71e5632b14e489244
gd81-08-12 s2t02 Might As Well.flac:4c8f2afd9a02d1ad81acd9d64e2818cd
gd81-08-12 s2t03 Man Smart (Woman Smarter).flac:b47c28d4ebfe6655447553d91288ea28
gd81-08-12 s2t04 Scarlet Begonias.flac:04c88ab8f4f2cc55d493140b12584f25
gd81-08-12 s2t05 Fire On The Mountain.flac:45b97516492923d51a949a35483c7401
gd81-08-12 s2t06 Estimated Prophet.flac:27f999f19e85f9207f20b086bac9e236
gd81-08-12 s2t07 Eyes Of The World.flac:391604d53801b3ffe3b9b2f3ccaebcfa
gd81-08-12 s2t08 Drums.flac:c62a185c7f4c180d8f3332ef9ad4ef72
gd81-08-12 s2t09 Space.flac:9f0c5eaf88e6f54302071b1edc6176de
gd81-08-12 s2t10 Spanish Jam.flac:d62556b3e3c3e0a5eded0ad97131a1c8
gd81-08-12 s2t11 Truckin'.flac:0d26508fcf13b6dc4949b08d12b648b6
gd81-08-12 s2t12 Morning Dew.flac:8fc86c00856f2318cf14db881f6a7ffa
gd81-08-12 s2t13 Around & Around.flac:31d31eb35c511fdb886f6cb4da575a77
gd81-08-12 s2t14 Good Lovin'.flac:ea6a48b3841669785788592427c4533a
gd81-08-12 s2t15 Encore Break.flac:dd0e691d7a908bf924cc3b29538d50cf
gd81-08-12 s2t16 US Blues.flac:5059c458a94fdfd51312cd7a45c2ea12

Comments
Add Comment
Other Sources (comments)
SBD>MC>R>DAT>CDR (with... (1) flac16; Source: aud... (0) flac16; Recording... (0) flac24; Partial... (0) flac16/48kHz;... (0) flac24/96 Source... (0)
Date User Comment