Browse Collections Artists Sources   Search Dates

Add Show    List Management    Help


Grateful Dead 08/12/81
Salt Palace, Salt Lake City, UT
Comments Add Comment    Source Collectors    Add to Collection    Add to Want List    History
Source # 142956 Other Sources
Entered by Matt Vernon
Checksums flac-md5 , ffp
Disc Counts 0 / 0
Media Size
Date Circulated
Date Added

08/16/2018
Source Summary flac24/96 Source Info: Dan Healy's Master Soundboard Cassettes (Sony TC-D5M/TDK MA-R90/Dolby B)> Frank Streeter's 1st generation 1/4 track Reels @ 3.75 ips (Sony TC770/Maxell UD35-90B) Transfer Info: 1st generation Reels (Technics RS-1506)> Tascam DA-3000 (DSF 1bit/5.6 MHz) > dBpoweramp 24/96 > Adobe Audition 3.01 > TLH flac2496. Mastered by Scott Cluston. 
  Archive
Source Information - Download Text | Download Zip
Grateful Dead
Salt Palace
Salt Lake City, UT
Wednesday August 12th, 1981

Source Info:
Dan Healy's Master Soundboard Cassettes (Sony TC-D5M/TDK MA-R90/Dolby B)> Frank Streeter's 1st generation 1/4 track Reels @ 3.75 ips (Sony TC770/Maxell UD35-90B)

Transfer Info:
1st generation Reels (Technics RS-1506)> Tascam DA-3000 (DSF 1bit/5.6 MHz) > dBpoweramp 24/96 > Adobe Audition 3.01 > TLH flac2496

Notes:
- Thanks to Frank Streeter for the 1st generation reels
- Thanks to Matt Smith for the transfer
- Thanks to Charlie Miller for coordinating this effort
- Thanks to Matt Smith for the audience source which supplies "Alabama Getaway > Greatest Story Ever Told", the first 0:39 of "Friend Of The Devil", a 0:27 patch in "Lost Sailor", from 0:24 of "Estimated Prophet" thru the first 4:00 of "Eyes Of The World", as well as from 2:38 of "Around & Around" thru the first 0:10 of "Good Lovin'
- Thanks to SIRMick for the shnid95346 audience source which supplies a 0:31 patch in the "Estimated Prophet > Eyes Of The World" transition
- Thanks to Charlie Miller and Rob Eaton for the shnid139593 soundboard source which supplies the end of "Truckin'", "Morning Dew" and the first 2:40 of "Around & Around", as well as from 0:10 of "Good Lovin'" thru the end of the show
- There's some hi-hat/cymbals distortion in the left channel at spots throughout the show (also present on shnid139593)
- Spanish Jam space included in "Spanish Jam"
- Pitch corrected

Mastered by Scott Clugston
August 2018

Set One:
s1t01 - Alabama Getaway >
s1t02 - Greatest Story Ever Told
s1t03 - Friend Of The Devil
s1t04 - Mama Tried >
s1t05 - Mexicali Blues
s1t06 - Jack-A-Roe >
s1t07 - CC Rider
s1t08 - Althea >
s1t09 - Lost Sailor >
s1t10 - Saint Of Circumstance

Set Two:
s2t01 - Tuning
s2t02 - Might As Well >
s2t03 - Man Smart (Woman Smarter)
s2t04 - Scarlet Begonias >
s2t05 - Fire On The Mountain
s2t06 - Estimated Prophet >
s2t07 - Eyes Of The World >
s2t08 - Drums >
s2t09 - Space >
s2t10 - Spanish Jam >
s2t11 - Truckin' >
s2t12 - Morning Dew >
s2t13 - Around & Around >
s2t14 - Good Lovin'
s2t15 - Encore Break
s2t16 - US Blues


    length     expanded size    cdr  WAVE problems  fmt   ratio  filename
     5:02.427     174197804 B   cxx   --   ---xx   flac  0.7001  gd81-08-12 s1t01 Alabama Getaway.flac
     4:32.667     157056044 B   cxx   --   ---xx   flac  0.7020  gd81-08-12 s1t02 Greatest Story Ever Told.flac
    10:51.720     375390764 B   cxx   --   ---xx   flac  0.6680  gd81-08-12 s1t03 Friend Of The Devil.flac
     2:29.373      86039084 B   cxx   --   ---xx   flac  0.6878  gd81-08-12 s1t04 Mama Tried.flac
     6:30.307     224816684 B   cxx   --   ---xx   flac  0.6654  gd81-08-12 s1t05 Mexicali Blues.flac
     4:46.733     165158444 B   cxx   --   ---xx   flac  0.6675  gd81-08-12 s1t06 Jack-A-Roe.flac
     9:07.960     315625004 B   cxx   --   ---xx   flac  0.6546  gd81-08-12 s1t07 CC Rider.flac
     9:39.720     333918764 B   cxx   --   ---xx   flac  0.6627  gd81-08-12 s1t08 Althea.flac
     6:59.280     241505324 B   cxx   --   ---xx   flac  0.6592  gd81-08-12 s1t09 Lost Sailor.flac
     6:54.436     238714898 B   cxx   --   ---xx   flac  0.6711  gd81-08-12 s1t10 Saint Of Circumstance.flac
     1:11.107      40957484 B   cxx   --   ---xx   flac  0.6123  gd81-08-12 s2t01 Tuning.flac
     4:16.533     147763244 B   cxx   --   ---xx   flac  0.6955  gd81-08-12 s2t02 Might As Well.flac
     7:01.040     242519084 B   cxx   --   ---xx   flac  0.6917  gd81-08-12 s2t03 Man Smart (Woman Smarter).flac
    11:29.987     397432364 B   cxx   --   ---xx   flac  0.7059  gd81-08-12 s2t04 Scarlet Begonias.flac
    12:09.533     420211244 B   cxx   --   ---xx   flac  0.6907  gd81-08-12 s2t05 Fire On The Mountain.flac
    11:19.773     391549484 B   cxx   --   ---xx   flac  0.7120  gd81-08-12 s2t06 Estimated Prophet.flac
    12:47.627     442153004 B   cxx   --   ---xx   flac  0.7023  gd81-08-12 s2t07 Eyes Of The World.flac
    10:06.787     349509164 B   cxx   --   ---xx   flac  0.6407  gd81-08-12 s2t08 Drums.flac
     2:39.053      91614764 B   cxx   --   ---xx   flac  0.6556  gd81-08-12 s2t09 Space.flac
     3:20.227     115330604 B   cxx   --   ---xx   flac  0.6757  gd81-08-12 s2t10 Spanish Jam.flac
     8:00.093     276533804 B   cxx   --   ---xx   flac  0.6908  gd81-08-12 s2t11 Truckin'.flac
    11:25.427     394805804 B   cxx   --   ---xx   flac  0.5916  gd81-08-12 s2t12 Morning Dew.flac
     3:57.147     136596524 B   cxx   --   ---xx   flac  0.6376  gd81-08-12 s2t13 Around & Around.flac
     7:40.707     265367084 B   cxx   --   ---xx   flac  0.6183  gd81-08-12 s2t14 Good Lovin'.flac
     1:25.013      48967724 B   cxx   --   ---xx   flac  0.5542  gd81-08-12 s2t15 Encore Break.flac
     5:09.682     178376816 B   cxx   --   ---xx   flac  0.6103  gd81-08-12 s2t16 US Blues.flac
   180:54.357    6252111010 B                            0.6684  (26 files)

No errors occured.


31539e4067f9313e7c618af63721e6e2 *gd81-08-12 s1t01 Alabama Getaway.flac
77b51f908a7c493bf423dcee15699fc4 *gd81-08-12 s1t02 Greatest Story Ever Told.flac
0bd409fd08e196c1a80bf4c348c22e78 *gd81-08-12 s1t03 Friend Of The Devil.flac
5c1f2d3d258663dcdad12d49b93b7eb5 *gd81-08-12 s1t04 Mama Tried.flac
d6de62ef7455a087fe73d240890e3f3a *gd81-08-12 s1t05 Mexicali Blues.flac
d9ff6f07e91ae4014dd28bd852957e99 *gd81-08-12 s1t06 Jack-A-Roe.flac
22dfa5abd40dd2339fd60d1f0122ba9e *gd81-08-12 s1t07 CC Rider.flac
a30d239f9307a983e01a5016a93d3380 *gd81-08-12 s1t08 Althea.flac
4a408711c6ceceeaef3586f7f0d095b2 *gd81-08-12 s1t09 Lost Sailor.flac
e1093368c87ec6e46c8b4e3f0438fde7 *gd81-08-12 s1t10 Saint Of Circumstance.flac
ef61cbb7053aa4f8a7ec19a30777d24c *gd81-08-12 s2t01 Tuning.flac
37705233ca309d41c05456a757e35c0a *gd81-08-12 s2t02 Might As Well.flac
abf350e9f8a40f4c2e16ba6ab84635e7 *gd81-08-12 s2t03 Man Smart (Woman Smarter).flac
e4e0abadba92d5dce1cc3819675c45d0 *gd81-08-12 s2t04 Scarlet Begonias.flac
1961684c5f7e5b2b799a1c2318ac0a4a *gd81-08-12 s2t05 Fire On The Mountain.flac
d520bca2d3508d0e39fe79589fa0aff7 *gd81-08-12 s2t06 Estimated Prophet.flac
56e5ed6ca50d330b89280c76305ab1f0 *gd81-08-12 s2t07 Eyes Of The World.flac
c9992e5eab29f279ec60bce2ebfe1f72 *gd81-08-12 s2t08 Drums.flac
cc8917a677380c1fdb4a4951bea4a96f *gd81-08-12 s2t09 Space.flac
874162200293939fd1e93872c504336a *gd81-08-12 s2t10 Spanish Jam.flac
6e3da4d0a804a3c74718f5dc1b818d15 *gd81-08-12 s2t11 Truckin'.flac
7cf69bfa3532300af81da74e219ea645 *gd81-08-12 s2t12 Morning Dew.flac
d17f6d0946edd7c2e610011ae2b73d9d *gd81-08-12 s2t13 Around & Around.flac
86aafef892d3e9679d33d268ef8ef210 *gd81-08-12 s2t14 Good Lovin'.flac
ee20ac8b803877f13df26ac6d7035b08 *gd81-08-12 s2t15 Encore Break.flac
e195a27137c92759edcd4756cf67ebd3 *gd81-08-12 s2t16 US Blues.flac

No errors occured.




Show Checksums
flac-md5
31539e4067f9313e7c618af63721e6e2 *gd81-08-12 s1t01 Alabama Getaway.flac
77b51f908a7c493bf423dcee15699fc4 *gd81-08-12 s1t02 Greatest Story Ever Told.flac
0bd409fd08e196c1a80bf4c348c22e78 *gd81-08-12 s1t03 Friend Of The Devil.flac
5c1f2d3d258663dcdad12d49b93b7eb5 *gd81-08-12 s1t04 Mama Tried.flac
d6de62ef7455a087fe73d240890e3f3a *gd81-08-12 s1t05 Mexicali Blues.flac
d9ff6f07e91ae4014dd28bd852957e99 *gd81-08-12 s1t06 Jack-A-Roe.flac
22dfa5abd40dd2339fd60d1f0122ba9e *gd81-08-12 s1t07 CC Rider.flac
a30d239f9307a983e01a5016a93d3380 *gd81-08-12 s1t08 Althea.flac
4a408711c6ceceeaef3586f7f0d095b2 *gd81-08-12 s1t09 Lost Sailor.flac
e1093368c87ec6e46c8b4e3f0438fde7 *gd81-08-12 s1t10 Saint Of Circumstance.flac
ef61cbb7053aa4f8a7ec19a30777d24c *gd81-08-12 s2t01 Tuning.flac
37705233ca309d41c05456a757e35c0a *gd81-08-12 s2t02 Might As Well.flac
abf350e9f8a40f4c2e16ba6ab84635e7 *gd81-08-12 s2t03 Man Smart (Woman Smarter).flac
e4e0abadba92d5dce1cc3819675c45d0 *gd81-08-12 s2t04 Scarlet Begonias.flac
1961684c5f7e5b2b799a1c2318ac0a4a *gd81-08-12 s2t05 Fire On The Mountain.flac
d520bca2d3508d0e39fe79589fa0aff7 *gd81-08-12 s2t06 Estimated Prophet.flac
56e5ed6ca50d330b89280c76305ab1f0 *gd81-08-12 s2t07 Eyes Of The World.flac
c9992e5eab29f279ec60bce2ebfe1f72 *gd81-08-12 s2t08 Drums.flac
cc8917a677380c1fdb4a4951bea4a96f *gd81-08-12 s2t09 Space.flac
874162200293939fd1e93872c504336a *gd81-08-12 s2t10 Spanish Jam.flac
6e3da4d0a804a3c74718f5dc1b818d15 *gd81-08-12 s2t11 Truckin'.flac
7cf69bfa3532300af81da74e219ea645 *gd81-08-12 s2t12 Morning Dew.flac
d17f6d0946edd7c2e610011ae2b73d9d *gd81-08-12 s2t13 Around & Around.flac
86aafef892d3e9679d33d268ef8ef210 *gd81-08-12 s2t14 Good Lovin'.flac
ee20ac8b803877f13df26ac6d7035b08 *gd81-08-12 s2t15 Encore Break.flac
e195a27137c92759edcd4756cf67ebd3 *gd81-08-12 s2t16 US Blues.flac
ffp
gd81-08-12 s1t01 Alabama Getaway.flac:fa584639179ff19865a47ba1a8dadb0a
gd81-08-12 s1t02 Greatest Story Ever Told.flac:145768d11609ca877489187afdab2086
gd81-08-12 s1t03 Friend Of The Devil.flac:5749692855e11a0e9a507bae64200149
gd81-08-12 s1t04 Mama Tried.flac:e37d01548afc376f0d51d4fde49511f5
gd81-08-12 s1t05 Mexicali Blues.flac:276fde148493b7f3c12d658df224625d
gd81-08-12 s1t06 Jack-A-Roe.flac:ba0cac3df7587f80afa0bda7289445e6
gd81-08-12 s1t07 CC Rider.flac:66d1077724a8492d02c8cfadffb42091
gd81-08-12 s1t08 Althea.flac:d3e26179ba4ff5ee0bf3236984f7ad76
gd81-08-12 s1t09 Lost Sailor.flac:c105547a0aa4ca1b386ab5c45300e6cc
gd81-08-12 s1t10 Saint Of Circumstance.flac:bb236e84ea64bd761f591c4f43ed72fe
gd81-08-12 s2t01 Tuning.flac:9ce0d2a21c164e07597fd3e40783db43
gd81-08-12 s2t02 Might As Well.flac:dbb2b9476e8e352105d7b78d7d25cfbe
gd81-08-12 s2t03 Man Smart (Woman Smarter).flac:22cc65f7e6d78b304b11005d16aadc2c
gd81-08-12 s2t04 Scarlet Begonias.flac:fe668a0ed75e1290462fd4f0a36c9d36
gd81-08-12 s2t05 Fire On The Mountain.flac:e6fd439ce5d4f42e904744ff0ec9269e
gd81-08-12 s2t06 Estimated Prophet.flac:003e6bcf53cc3d966d8e95e50eefd95b
gd81-08-12 s2t07 Eyes Of The World.flac:06d01c991fb0af1faa997c74318f9469
gd81-08-12 s2t08 Drums.flac:6afbdb7fa5bd299b535d902a885040cd
gd81-08-12 s2t09 Space.flac:8bd60ca5ecddd995a1337e5164b0f475
gd81-08-12 s2t10 Spanish Jam.flac:1d3f1d74d78e6a32178ffbca9963d5f6
gd81-08-12 s2t11 Truckin'.flac:abb4792f423f6cc2d24ba42d02e6270d
gd81-08-12 s2t12 Morning Dew.flac:679360421f36b4c77f9a9542e2d22697
gd81-08-12 s2t13 Around & Around.flac:6aefedf7fa08bff162f2bf49c4ddada2
gd81-08-12 s2t14 Good Lovin'.flac:dc30056b454befd171ff071ee29465b5
gd81-08-12 s2t15 Encore Break.flac:85fdabde816a6704055d41809e26a08b
gd81-08-12 s2t16 US Blues.flac:51d0c37aeb84827ff32de5dabdc926fb

Comments
Add Comment
Other Sources (comments)
SBD>MC>R>DAT>CDR (with... (1) flac16; Source: aud... (0) flac16; Recording... (0) flac24; Partial... (0) flac16/48kHz;... (0) flac16/48 Source... (0)
Date User Comment