Browse Collections Artists Sources   Search Dates

Add Show    List Management    Help


Grateful Dead 10/30/83
Marin County Veterans Auditorium, San Rafael, CA
Comments Add Comment    Source Collectors    Add to Collection    Add to Want List    History
Source # 142967 Other Sources
Entered by Matt Vernon
Checksums ffp , flac-md5
Disc Counts 0 / 0
Media Size
Date Circulated
Date Added
08/17/2018
08/22/2018
Source Summary flac24; Recording Info: SBD > Cassette Master > Cassette (TDK SA-X90); Transfer Info: Cassette (Nakamichi CR-7A) > Tascam DA-3000 (DSF 1-bit/5.6 MHz) > dBpoweramp > Adobe Audition CC2015 > Samplitude Pro X3 Suite > FLAC/24 
  Archive
Source Information - Download Text | Download Zip
Grateful Dead - October 30, 1983
Marin Veterans Memorial Auditorium - San Rafael, CA

Recording Info:
SBD > Cassette Master > Cassette (TDK SA-X90)

Transfer Info:
Cassette (Nakamichi CR-7A) > Tascam DA-3000 (DSF 1-bit/5.6 MHz) >
dBpoweramp > Adobe Audition CC2015 > Samplitude Pro X3 Suite > FLAC/24
(1 DVD FLAC)

Patch Info:
Realistic Mini-mics > Cassette Master > CD > FLAC (shnid=92382) supplies:
Black Peter (6:34 - 6:50)

All Transfers and Mastering by Charlie Miller
[email protected]
August 15, 2018

Notes:
-- The mix and levels change during Alabama Getaway
-- Jerry's stage volume was loud making him low in the mix
-- Thanks to David Gans for the tapes
-- Thanks to Andrew F. and Anne Cohen for the patch source
-- Thanks to Scott Clugston for his continued assistance
-- Thanks to Joe B. Jones for the pitch correction settings

Set 1:
01 - Alabama Getaway >
02 - Greatest Story Ever Told
03 - Friend Of The Devil
04 - New Minglewood Blues
05 - Tennessee Jed
06 - Cassidy
07 - West L.A. Fadeaway
08 - Hell In A Bucket >
09 - Might As Well

Set 2:
10 - Tuning
11 - Bertha >
12 - Samson And Delilah
13 - Ship Of Fools
14 - Playing In The Band >
15 - Drums >
16 - Space >
17 - Truckin' >
18 - Spoonful >
19 - Black Peter >
20 - Sugar Magnolia

Encore:
21 - Tuning
22 - Keep Your Day Job


SHNTOOL OUTPUT:
    length     expanded size    cdr  WAVE problems  fmt   ratio  filename
     5:00.815     173269208 B   cxx   --   ---xx   flac  0.6616  01 Alabama Getaway.flac
     4:22.220     151038896 B   cxx   --   ---xx   flac  0.6555  02 Greatest Story Ever Told.flac
     9:26.333     326207906 B   cxx   --   ---xx   flac  0.6634  03 Friend Of The Devil.flac
     7:13.903     249928076 B   cxx   --   ---xx   flac  0.6601  04 New Minglewood Blues.flac
     8:47.583     303887678 B   cxx   --   ---xx   flac  0.6612  05 Tennessee Jed.flac
     5:37.616     194466746 B   cxx   --   ---xx   flac  0.6599  06 Cassidy.flac
     7:38.205     263926100 B   cxx   --   ---xx   flac  0.6583  07 West LA Fadeaway.flac
     5:18.630     183530924 B   cxx   --   ---xx   flac  0.6684  08 Hell In A Bucket.flac
     4:14.091     146356286 B   cxx   --   ---xx   flac  0.6746  09 Might As Well.flac
     2:13.693      77006960 B   cxx   --   ---xx   flac  0.6276  10 Tuning.flac
     6:46.525     234158594 B   cxx   --   ---xx   flac  0.6660  11 Bertha.flac
     7:30.443     259455038 B   cxx   --   ---xx   flac  0.6666  12 Samson And Delilah.flac
     9:28.524     327469874 B   cxx   --   ---xx   flac  0.6626  13 Ship Of Fools.flac
    11:33.588     399506798 B   cxx   --   ---xx   flac  0.6782  14 Playing In The Band.flac
     8:31.901     294855092 B   cxx   --   ---xx   flac  0.6551  15 Drums.flac
     9:54.894     342659030 B   cxx   --   ---xx   flac  0.6439  16 Space.flac
     5:45.822     199193672 B   cxx   --   ---xx   flac  0.6743  17 Truckin'.flac
     2:59.934     103642304 B   cxx   --   ---xx   flac  0.6709  18 Spoonful.flac
     8:24.747     290734256 B   cxx   --   ---xx   flac  0.6568  19 Black Peter.flac
     8:48.807     304593080 B   cxx   --   ---xx   flac  0.6691  20 Sugar Magnolia.flac
     0:23.785      13699970 B   cxx   --   ---xx   flac  0.6240  21 Tuning.flac
     4:29.279     155104898 B   cxx   --   ---xx   flac  0.6720  22 Keep Your Day Job.flac
   144:31.338    4994691386 B                            0.6627  (22 files)


Show Checksums
ffp
01 Alabama Getaway.flac:e9a6bf3d2c1067e6b9aaf5d0f91dae0a
02 Greatest Story Ever Told.flac:b1f4cfd621b6612a6cd6dd795671a0ab
03 Friend Of The Devil.flac:6c89d3b69f25655d5161d565e7210727
04 New Minglewood Blues.flac:96ae5beff5ab84b167e892d8acfbabb5
05 Tennessee Jed.flac:d338fd8344a28e1e7fad201017044552
06 Cassidy.flac:7f5edb7a184329ad262386b275d3f73e
07 West LA Fadeaway.flac:7d34ab1a9f65aed1926e4271eb2cf5de
08 Hell In A Bucket.flac:1d987f5b1adf4139f1cff1a93ddc13c3
09 Might As Well.flac:ef0273811bb8b58e0ca6c4f712be6b11
10 Tuning.flac:16c3f3cde09e0973a4f22a13e836759a
11 Bertha.flac:f0d7b3b283b37d838f2de3173bdb7898
12 Samson And Delilah.flac:cdef88b860f9909326ea2706e456163b
13 Ship Of Fools.flac:f69a0d9a06690451dba309d0fb33b456
14 Playing In The Band.flac:a1a248bf762bfc3a942bc27d3aeff390
15 Drums.flac:3209830f7f80db7fd7adaf17b096fc0e
16 Space.flac:5c6b7e7a8279138471edecc24d3b5404
17 Truckin'.flac:50b4d2182244ac266ef9f111b8238adb
18 Spoonful.flac:11a8b6fd14db8d463f64e01bcdfa3296
19 Black Peter.flac:f3e7b57f440ff0e22863cbf09bbb4f7d
20 Sugar Magnolia.flac:c4325e863aefd01324e550fa5b525c6c
21 Tuning.flac:3ad0b74b142d58f5e5c33996e618aa28
22 Keep Your Day Job.flac:3798fa0caff0b2574d85091be40064da
flac-md5
3e372cda31b3f3924f69fc9f5e5051a8 *01 Alabama Getaway.flac
c00565e4e43c7fe27874c6ff797d125c *02 Greatest Story Ever Told.flac
92d5c658faf7f178d9667c60413e9dd7 *03 Friend Of The Devil.flac
e4777a7049b0514306795bf01fe4de59 *04 New Minglewood Blues.flac
cfeea484c83f8b3834f8be40b892d31e *05 Tennessee Jed.flac
5da2b3f96bc0e2d2e5032a05eaedb880 *06 Cassidy.flac
495a88fc300c38b7431ebdc379e45926 *07 West LA Fadeaway.flac
a997f9b951ce06ebe3ae574396526699 *08 Hell In A Bucket.flac
85019d719a5dd80508f068cbbea14a0c *09 Might As Well.flac
74acd8e73f46453cedace36aca98744b *10 Tuning.flac
9e209a75741f6edc032b19c34604bb6d *11 Bertha.flac
c2987eeba7050d808f39adf99c748ad2 *12 Samson And Delilah.flac
f9a3211caa967a352f58938c87fc873e *13 Ship Of Fools.flac
06b47e8b9f8885dd428324675b122e5f *14 Playing In The Band.flac
a43c802cfb5ac7ffd977a60dee3d3381 *15 Drums.flac
ecfd7a86d0184e3bc813584af31a7803 *16 Space.flac
57535972ad7b21e1a71bfb9388c2259f *17 Truckin'.flac
86a657591d586042e195bd7f73b832ad *18 Spoonful.flac
f5952952fd267e955417decfc760da56 *19 Black Peter.flac
4bd8e10d44f7cad49b6666aaed3bbc8e *20 Sugar Magnolia.flac
1c0a93bca425d5331c498e38e92934d0 *21 Tuning.flac
cd160c7c73c5c912fd70fde820bb7ae2 *22 Keep Your Day Job.flac

Comments
Add Comment
Other Sources (comments)
Recording Info: SBD ->... (0) AUD: Realistic Mini-mics >... (0)
Date User Comment