Browse Collections Artists Sources   Search Dates

Add Show    List Management    Help


Grateful Dead 12/02/71
Music Hall, Boston, MA
Comments Add Comment    Source Collectors    Add to Collection    Add to Want List    History
Source # 142968 Other Sources
Entered by Matt Vernon
Checksums ffp , flac-md5
Disc Counts 0 / 0
Media Size
Date Circulated
Date Added
08/20/2018
08/22/2018
Source Summary flac16/48kHz; Source Info: FM Broadcast (WBCN Boston); Master Reel to Reel > Matt Smith's 1st generation Reels; Transfer Info: 1st generation reels ((Technics RS-1506) > Tascam DA-3000 (DSF 1-bit/5.6 MHz) > dBpoweramp 24/96 > Adobe Audition 3.0 24/96 > TLH flac2496; 24-bit > 16-bit via dBpoweramp; pitch corrected version of shnid 141424 
  Archive
Source Information - Download Text | Download Zip
Grateful Dead
Music Hall
Boston, MA
Thursday December 2nd, 1971

This is a pitch corrected version of shnid141424

This is a 16/48 fileset. 24-bit > 16-bit via dBpoweramp

Source Info:
FM Broadcast (WBCN Boston); Master Reel to Reel > Matt Smith's 1st generation Reels

Transfer Info:
1st generation reels ((Technics RS-1506) > Tascam DA-3000 (DSF 1-bit/5.6 MHz) > dBpoweramp 24/96 > Adobe Audition 3.0 24/96 > TLH flac2496

Notes:
- Thanks to Matt Smith for the 1st generation reel source and the transfer
- Thanks to Charlie Miller for coordinating this effort
- Based on this copy, we now know, that the majority of what we thought were tape flips on previous versions, were actually the editing of the radio station id's and between song banter/tunings. Previous versions had cuts at the beginning of "Black Peter", the end of Sunshine Daydream, in the middle of "Deal" and in the transition between "Turn On Your Lovelight > Going Down The road Feeling Bad". The only cut remaining is the one in the middle of "Deal" and we also now know that there was no "gozinta" from Lovelight> GDTRFB. Lovelight ends, there's a radio station id and then GDTRFB starts. This transcription also contains most, if not all, of the between song banter and tunings
- Thanks to Joe B. Jones for his assistance with the pitch correction

Mastered by Scott Clugston
August 2018

Set One:
s1t01 - Intro
s1t02 - Bertha
s1t03 - Equipment Malfunction
s1t04 - Playin' In The Band
s1t05 - Mr. Charlie
s1t06 - Sugaree
s1t07 - Beat It On Down The Line
s1t08 - Black Peter
s1t09 - Next Time You See Me
s1t10 - Dead Air
s1t11 - Jack Straw
s1t12 - Tennessee Jed
s1t13 - Mexicali Blues
s1t14 - Tuning
s1t15 - Smokestack Lightning
s1t16 - Big Railroad Blues
s1t17 - Casey Jones
s1t18 - One More Saturday Night

Set Two:
s2t01 - Tuning
s2t02 - Sugar Magnolia
s2t03 - Name that Tune
s2t04 - De//al
s2t05 - El Paso
s2t06 - Brokedown Palace
s2t07 - Tuning
s2t08 - Uncle John's Band
s2t09 - Tuning
s2t10 - Not Fade Away >
s2t11 - Turn On Your Lovelight
s2t12 - Goin' Down The Road Feeling Bad >
s2t13 - Not Fade Away
s2t14 - Johnny B. Goode


    length     expanded size    cdr  WAVE problems  fmt   ratio  filename
     1:31.707      17607724 B   cxx   --   ---xx   flac  0.4781  gd71-12-02 s1t01 Intro.flac
     6:11.253      71280684 B   cxx   --   ---xx   flac  0.5873  gd71-12-02 s1t02 Bertha.flac
     1:17.827      14942764 B   cxx   --   ---xx   flac  0.4524  gd71-12-02 s1t03 Equipment Malfunction.flac
     7:25.187      85475884 B   cxx   --   ---xx   flac  0.5608  gd71-12-02 s1t04 Playin' In The Band.flac
     3:57.227      45547564 B   cxx   --   ---xx   flac  0.5651  gd71-12-02 s1t05 Mr. Charlie.flac
     8:21.107      96212524 B   cxx   --   ---xx   flac  0.5486  gd71-12-02 s1t06 Sugaree.flac
     3:06.653      35837484 B   cxx   --   ---xx   flac  0.5944  gd71-12-02 s1t07 Beat It On Down The Line.flac
     9:08.293     105272364 B   cxx   --   ---xx   flac  0.5258  gd71-12-02 s1t08 Black Peter.flac
     4:21.253      50160684 B   cxx   --   ---xx   flac  0.5824  gd71-12-02 s1t09 Next Time You See Me.flac
     3:01.560      34859564 B   cxx   --   ---xx   flac  0.4652  gd71-12-02 s1t10 Dead Air.flac
     5:43.800      66009644 B   cxx   --   ---xx   flac  0.5615  gd71-12-02 s1t11 Jack Straw.flac
     6:55.960      79864364 B   cxx   --   ---xx   flac  0.5629  gd71-12-02 s1t12 Tennessee Jed.flac
     3:26.027      39557164 B   cxx   --   ---xx   flac  0.5687  gd71-12-02 s1t13 Mexicali Blues.flac
     1:42.733      19724844 B   cxx   --   ---xx   flac  0.4370  gd71-12-02 s1t14 Tuning.flac
    10:14.800     118041644 B   cxx   --   ---xx   flac  0.5449  gd71-12-02 s1t15 Smokestack Lightning.flac
     5:37.160      64734764 B   cxx   --   ---xx   flac  0.5780  gd71-12-02 s1t16 Big Railroad Blues.flac
     6:39.267      76659244 B   cxx   --   ---xx   flac  0.5744  gd71-12-02 s1t17 Casey Jones.flac
     4:35.010      52802052 B   cxx   --   ---xx   flac  0.5928  gd71-12-02 s1t18 One More Saturday Night.flac
     0:57.320      11005484 B   cxx   --   ---xx   flac  0.4847  gd71-12-02 s2t01 Tuning.flac
     6:46.933      78131244 B   cxx   --   ---xx   flac  0.5906  gd71-12-02 s2t02 Sugar Magnolia.flac
     2:41.680      31042604 B   cxx   --   ---xx   flac  0.4887  gd71-12-02 s2t03 Name That Tune.flac
     6:30.893      75051564 B   cxx   --   ---xx   flac  0.5598  gd71-12-02 s2t04 Deal.flac
     4:54.347      56514604 B   cxx   --   ---xx   flac  0.5567  gd71-12-02 s2t05 El Paso.flac
     5:24.587      62320684 B   cxx   --   ---xx   flac  0.5506  gd71-12-02 s2t06 Brokedown Palace.flac
     1:30.867      17446444 B   cxx   --   ---xx   flac  0.4770  gd71-12-02 s2t07 Tuning.flac
     8:23.387      96650284 B   cxx   --   ---xx   flac  0.5755  gd71-12-02 s2t08 Uncle John's Band.flac
     1:33.653      17981484 B   cxx   --   ---xx   flac  0.4742  gd71-12-02 s2t09 Tuning.flac
     6:18.600      72691244 B   cxx   --   ---xx   flac  0.5892  gd71-12-02 s2t10 Not Fade Away.flac
    18:27.587     212656684 B   cxx   --   ---xx   flac  0.5792  gd71-12-02 s2t11 Turn On Your Lovelight.flac
     6:58.307      80314924 B   cxx   --   ---xx   flac  0.5611  gd71-12-02 s2t12 Goin' Down The Road Feeling Bad.flac
     3:27.107      39764524 B   cxx   --   ---xx   flac  0.5643  gd71-12-02 s2t13 Not Fade Away.flac
     4:11.354      48259968 B   cxx   --   ---xx   flac  0.5763  gd71-12-02 s2t14 Johnny B. Goode.flac
   171:23.444    1974422700 B                            0.5592  (32 files)


Show Checksums
ffp
gd71-12-02 s1t01 Intro.flac:fd362dd63d5bbfcac05a2c7001e233bb
gd71-12-02 s1t02 Bertha.flac:aef9c8ad29539c0954ccf3342afc5a07
gd71-12-02 s1t03 Equipment Malfunction.flac:c7caa7d5e44ef6be075fc1c6495e4169
gd71-12-02 s1t04 Playin' In The Band.flac:6182255fa752056057d673968f7626a9
gd71-12-02 s1t05 Mr. Charlie.flac:2136064202a9670665e6776a64a9a49f
gd71-12-02 s1t06 Sugaree.flac:8b57aa05160cddf6469d777d9a773a30
gd71-12-02 s1t07 Beat It On Down The Line.flac:893d6b19f0e7fdb0295937c55e28ba80
gd71-12-02 s1t08 Black Peter.flac:457c8188f6d653c93e8944258e4b9fbc
gd71-12-02 s1t09 Next Time You See Me.flac:2a37dfef816c8f158ce007e5cb141fb0
gd71-12-02 s1t10 Dead Air.flac:792466cd75b2db6da7ef3338812c4952
gd71-12-02 s1t11 Jack Straw.flac:d964137286d951eb31254902de57244c
gd71-12-02 s1t12 Tennessee Jed.flac:f17f37f884702f3d7b0362e2de1af662
gd71-12-02 s1t13 Mexicali Blues.flac:c2a3e14b037f4cdc8220d7091d0262a9
gd71-12-02 s1t14 Tuning.flac:ceaae596c65f84b884f95c56e5c25d83
gd71-12-02 s1t15 Smokestack Lightning.flac:f45b7942e9d04beafdb73642935994a0
gd71-12-02 s1t16 Big Railroad Blues.flac:406c0636b42955b8ab6121b3c628dc00
gd71-12-02 s1t17 Casey Jones.flac:74662ab109caf5012483fdc8d307b86f
gd71-12-02 s1t18 One More Saturday Night.flac:f5f07038d6e5512ae54c64a490ed3c61
gd71-12-02 s2t01 Tuning.flac:3b11ff1c7df8c0b59605af6d5edbdf51
gd71-12-02 s2t02 Sugar Magnolia.flac:e4f02753f5bb764f9057d92e80227798
gd71-12-02 s2t03 Name That Tune.flac:a51a603a257a384bc70decea86e879cd
gd71-12-02 s2t04 Deal.flac:059ebe0ad1df78c536f1737051a7a184
gd71-12-02 s2t05 El Paso.flac:11a77612930013d8e726f9179d55659c
gd71-12-02 s2t06 Brokedown Palace.flac:2565776e1e307798446ea2ff54d65501
gd71-12-02 s2t07 Tuning.flac:d599d423bebde6e847fbd7c596b4e1f3
gd71-12-02 s2t08 Uncle John's Band.flac:1fad0606636549692519e64224b729e4
gd71-12-02 s2t09 Tuning.flac:aeea9cde31a26cc2e6ee91f404ca74f1
gd71-12-02 s2t10 Not Fade Away.flac:c415edfcf7e73ac13c552a42f45fa2f6
gd71-12-02 s2t11 Turn On Your Lovelight.flac:77748773aa864796f1cc59d210fa37eb
gd71-12-02 s2t12 Goin' Down The Road Feeling Bad.flac:b1a16a6f6f08b8f0040b2b0621c85816
gd71-12-02 s2t13 Not Fade Away.flac:824dda72e27088245f8806277729466c
gd71-12-02 s2t14 Johnny B. Goode.flac:1cee9a124793d1604f7a2a3187f82eb3
flac-md5
ef48fedc8d576649101a020175246309 *gd71-12-02 s1t01 Intro.flac
d93387132ad3e3eb4ba10f0e31ac285a *gd71-12-02 s1t02 Bertha.flac
71e98e380011fb0579d3a2b73f62a0d9 *gd71-12-02 s1t03 Equipment Malfunction.flac
4afcb56331221f0fdb888fd9f66fe986 *gd71-12-02 s1t04 Playin' In The Band.flac
509aba2b98c18d9e08a68f470c18dc6c *gd71-12-02 s1t05 Mr. Charlie.flac
834c09d07f30bbca6f72d1542cb83d0d *gd71-12-02 s1t06 Sugaree.flac
0f11b90ac75017abfd6c4001777f8528 *gd71-12-02 s1t07 Beat It On Down The Line.flac
0f9d868641ce974457495ec2d9d430ce *gd71-12-02 s1t08 Black Peter.flac
7df7d8d883b77c2ef7f03c6d52eeea9b *gd71-12-02 s1t09 Next Time You See Me.flac
2fb8f3480111ac4884a18e342630da6b *gd71-12-02 s1t10 Dead Air.flac
416fab368495863fa95b44a7463a11e3 *gd71-12-02 s1t11 Jack Straw.flac
5ba6d3cb7aed26024cea4c58ce59e766 *gd71-12-02 s1t12 Tennessee Jed.flac
b58f47433c3116855ec08b79b7e81964 *gd71-12-02 s1t13 Mexicali Blues.flac
9d8d4a60ee16eac2b6b7dd1de8a330b6 *gd71-12-02 s1t14 Tuning.flac
a6900c09542b7dbbcb2c322cae77bd96 *gd71-12-02 s1t15 Smokestack Lightning.flac
af9a9ebe19063b8cad005ba7ad06c3a1 *gd71-12-02 s1t16 Big Railroad Blues.flac
15267f1026be7f151a132ceba3cddb99 *gd71-12-02 s1t17 Casey Jones.flac
db2e2e750467d97e2c954ca4c94389e3 *gd71-12-02 s1t18 One More Saturday Night.flac
8e05be22f7a281f0064f7188f2409e22 *gd71-12-02 s2t01 Tuning.flac
5078e97e220dea809e32b180d10bd765 *gd71-12-02 s2t02 Sugar Magnolia.flac
16cf99ec21e8a1164f2bc1741fb340d7 *gd71-12-02 s2t03 Name That Tune.flac
ee3fb7336da1942c107086e3bef70c0f *gd71-12-02 s2t04 Deal.flac
b1b52e795feeddabc9c7cf079c289da9 *gd71-12-02 s2t05 El Paso.flac
57614d8ef3afaf0ab39bf4fdc79c6338 *gd71-12-02 s2t06 Brokedown Palace.flac
6b27cfaf1d0ab2ef2be3715c909b81e6 *gd71-12-02 s2t07 Tuning.flac
0faf08176709a07e66511bb9b4740d0a *gd71-12-02 s2t08 Uncle John's Band.flac
dbdb293897213ad9387ab42e84a1b5fd *gd71-12-02 s2t09 Tuning.flac
74700df40e8c66a44426624dc454dfda *gd71-12-02 s2t10 Not Fade Away.flac
cc4450b8dfb08aa5f723c2b211de4b96 *gd71-12-02 s2t11 Turn On Your Lovelight.flac
87914b599531be092a485f4b4b567d64 *gd71-12-02 s2t12 Goin' Down The Road Feeling Bad.flac
f3f57e87cd411e888ecd6e11d2c9001d *gd71-12-02 s2t13 Not Fade Away.flac
80ca43c8ffa3239263b2a93a8c6a9eba *gd71-12-02 s2t14 Johnny B. Goode.flac

Comments
Add Comment
Other Sources (comments)
SBD> MR> R> DAT> CDR; see... (1) flac16; Source Info:... (0) flac16; Source Info:... (0) flac24; Source Info:... (0) flac24; Source Info:... (0) flac16/48kHz; Set 2... (0)
Date User Comment