Browse Collections Artists Sources   Search Dates

Add Show    List Management    Help


Grateful Dead 09/06/80
State Fairgrounds, Lewiston, ME
Comments Add Comment    Source Collectors    Add to Collection    Add to Want List    History
Source # 142971 Other Sources
Entered by Matt Vernon
Checksums ffp , flac-md5
Disc Counts 0 / 0
Media Size
Date Circulated
Date Added
08/18/2018
08/22/2018
Source Summary flac24; Source Info: Jim Wise's Master (FOB) Audience Cassettes; Nakamichi 700 mics > Sony TC-D5 (Maxell UDXLII-C90)(patched out of Steve Rolfe); Transfer Info: Master Cassettes (Nakamichi Dragon)> Tascam DA-3000 (DSF 1-bit/5.6 MHz) > dBpoweramp (24-bit/96 kHz) > Adobe Audition 3.01 (24-bit/96 kHz) > TLH flac2496 
  Archive
Source Information - Download Text | Download Zip
Grateful Dead
Maine State Fairgrounds
Lewiston, ME
Saturday September 6th, 1980

Source Info:
Jim Wise's Master (FOB) Audience Cassettes; Nakamichi 700 mics > Sony TC-D5 (Maxell UDXLII-C90)(patched out of Steve Rolfe)

Transfer Info:
Master Cassettes (Nakamichi Dragon)> Tascam DA-3000 (DSF 1-bit/5.6 MHz) > dBpoweramp (24-bit/96 kHz) > Adobe Audition 3.01 (24-bit/96 kHz) > TLH flac2496

Notes:
- Thanks to Jim Wise for recording the show and the fresh transcription of his FOB audience master
- Thanks to Charlie Miller for coordinating this effort
- Thanks to Tim Friend and Andrew F for the shnid101684 FOB Nakamichi 300 source which supplies a 0:13 patch in "Drums", as well as a 0:05 patch in the "One More Saturday Night > Brokedown Palace" transition
- There is some minor wind noise noticeable in between some songs
- Thanks to Joe B. Jones for verifying the pitch
- A fun time was had by all

Mastered by Scott Clugston
August 2018

Set One:
s1t01 - Crowd
s1t02 - Alabama Getaway >
s1t03 - Greatest Story Ever Told
s1t04 - Sugaree
s1t05 - Me & My Uncle >
s1t06 - Mexicali Blues
s1t07 - Tennessee Jed
s1t08 - Feel Like A Stranger
s1t09 - Friend Of The Devil
s1t10 - Far From Me >
s1t11 - Little Red Rooster
s1t12 - China Cat Sunflower >
s1t13 - I Know You Rider >
s1t14 - Promised Land

Set Two:
s2t01 - Crowd
s2t02 - Shakedown Street >
s2t03 - Lost Sailor >
s2t04 - Saint Of Circumstance
s2t05 - Althea
s2t06 - Playin' In The Band >
s2t07 - Uncle John's Band >
s2t08 - Drums >
s2t09 - Space >
s2t10 - Not Fade Away >
s2t11 - The Wheel >
s2t12 - Uncle John's Band Reprise >
s2t13 - Playin' In The Band Reprise >
s2t14 - Sugar Magnolia
s2t15 - Encore Break
s2t16 - One More Saturday Night >
s2t17 - Brokedown Palace



    length     expanded size    cdr  WAVE problems  fmt   ratio  filename
     2:49.560      97666604 B   cxx   --   ---xx   flac  0.7067  gd80-09-06 s1t01 Crowd.flac
     5:16.587     182353964 B   cxx   --   ---xx   flac  0.7429  gd80-09-06 s1t02 Alabama Getaway.flac
     5:16.653     182392364 B   cxx   --   ---xx   flac  0.7252  gd80-09-06 s1t03 Greatest Story Ever Told.flac
    15:37.907     540234284 B   cxx   --   ---xx   flac  0.7257  gd80-09-06 s1t04 Sugaree.flac
     2:59.093     103157804 B   cxx   --   ---xx   flac  0.7298  gd80-09-06 s1t05 Me & My Uncle.flac
     5:19.027     183759404 B   cxx   --   ---xx   flac  0.7280  gd80-09-06 s1t06 Mexicali Blues.flac
     9:55.720     343134764 B   cxx   --   ---xx   flac  0.7269  gd80-09-06 s1t07 Tennessee Jed.flac
    12:24.920     429073964 B   cxx   --   ---xx   flac  0.7303  gd80-09-06 s1t08 Feel Like A Stranger.flac
    10:19.613     356897324 B   cxx   --   ---xx   flac  0.7289  gd80-09-06 s1t09 Friend Of The Devil.flac
     4:09.400     143654444 B   cxx   --   ---xx   flac  0.7327  gd80-09-06 s1t10 Far From Me.flac
     9:55.280     342881324 B   cxx   --   ---xx   flac  0.7308  gd80-09-06 s1t11 Little Red Rooster.flac
     6:04.960     210217004 B   cxx   --   ---xx   flac  0.7333  gd80-09-06 s1t12 China Cat Sunflower.flac
     5:24.293     186793004 B   cxx   --   ---xx   flac  0.7409  gd80-09-06 s1t13 I Know You Rider.flac
     4:22.982     151477886 B   cxx   --   ---xx   flac  0.7420  gd80-09-06 s1t14 Promised Land.flac
     1:14.693      43023404 B   cxx   --   ---xx   flac  0.7144  gd80-09-06 s2t01 Crowd.flac
    11:50.507     409251884 B   cxx   --   ---xx   flac  0.7521  gd80-09-06 s2t02 Shakedown Street.flac
     5:58.893     206722604 B   cxx   --   ---xx   flac  0.7467  gd80-09-06 s2t03 Lost Sailor.flac
     6:31.480     225492524 B   cxx   --   ---xx   flac  0.7544  gd80-09-06 s2t04 Saint Of Circumstance.flac
    13:17.587     459409964 B   cxx   --   ---xx   flac  0.7373  gd80-09-06 s2t05 Althea.flac
     9:38.227     333058604 B   cxx   --   ---xx   flac  0.7490  gd80-09-06 s2t06 Playin' In The Band.flac
     7:50.773     271165484 B   cxx   --   ---xx   flac  0.7481  gd80-09-06 s2t07 Uncle John's Band.flac
    13:36.680     470407724 B   cxx   --   ---xx   flac  0.7089  gd80-09-06 s2t08 Drums.flac
     3:13.920     111697964 B   cxx   --   ---xx   flac  0.7163  gd80-09-06 s2t09 Space.flac
     6:36.747     228526124 B   cxx   --   ---xx   flac  0.7381  gd80-09-06 s2t10 Not Fade Away.flac
     5:16.987     182584364 B   cxx   --   ---xx   flac  0.7381  gd80-09-06 s2t11 The Wheel.flac
     3:20.120     115269164 B   cxx   --   ---xx   flac  0.7405  gd80-09-06 s2t12 Uncle John's Band Reprise.flac
     2:57.200     102067244 B   cxx   --   ---xx   flac  0.7407  gd80-09-06 s2t13 Playin' In The Band Reprise.flac
     9:16.027     320271404 B   cxx   --   ---xx   flac  0.7478  gd80-09-06 s2t14 Sugar Magnolia.flac
     0:54.920      31633964 B   cxx   --   ---xx   flac  0.7151  gd80-09-06 s2t15 Encore Break.flac
     4:47.120     165381164 B   cxx   --   ---xx   flac  0.7400  gd80-09-06 s2t16 One More Saturday Night.flac
     5:27.324     188538872 B   cxx   --   ---xx   flac  0.7284  gd80-09-06 s2t17 Brokedown Palace.flac
   211:45.200    7318196594 B                            0.7345  (31 files)


Show Checksums
ffp
gd80-09-06 s1t01 Crowd.flac:a7f71a47ce7a58dc08fc2889178b1526
gd80-09-06 s1t02 Alabama Getaway.flac:394827fdc2d5473acc11426fa68b48c8
gd80-09-06 s1t03 Greatest Story Ever Told.flac:7878f16df7f983dc9254114949b8e956
gd80-09-06 s1t04 Sugaree.flac:e6c9b2cea485cd5fc1ec48c7b7f835a5
gd80-09-06 s1t05 Me & My Uncle.flac:d2d3a9fc29f57c44c6c6aa7253112efe
gd80-09-06 s1t06 Mexicali Blues.flac:75641576a05c0364918a470700f01720
gd80-09-06 s1t07 Tennessee Jed.flac:683055a7fce6665919aff79a46cb4b65
gd80-09-06 s1t08 Feel Like A Stranger.flac:00141ee3339dcde57ded1ae37a2c7c34
gd80-09-06 s1t09 Friend Of The Devil.flac:f88e598b3bb1160595bbb9881c54e24d
gd80-09-06 s1t10 Far From Me.flac:07fb76d5acf4e89ebe5c6cf26e2f3368
gd80-09-06 s1t11 Little Red Rooster.flac:addc6e56d54ceb2a19a484da30c5e1cd
gd80-09-06 s1t12 China Cat Sunflower.flac:9fa9063fb15a8b92a13e9ee0b1e689be
gd80-09-06 s1t13 I Know You Rider.flac:9fcd6c4c57a8a2df5c4fb6e9bfb8fd3f
gd80-09-06 s1t14 Promised Land.flac:916d026d2bad51cb593338d85f5ab5e2
gd80-09-06 s2t01 Crowd.flac:e45a33f12de95e018160b1e26c6ca990
gd80-09-06 s2t02 Shakedown Street.flac:ed3477310a199d18243e7e6f8a67b993
gd80-09-06 s2t03 Lost Sailor.flac:d7a3aa06a123df4279b66b054764922b
gd80-09-06 s2t04 Saint Of Circumstance.flac:406944f2339c089d1364a862e0fb03d9
gd80-09-06 s2t05 Althea.flac:b9105bd062ea7e62c953185281903536
gd80-09-06 s2t06 Playin' In The Band.flac:96f92664b7e3ae6f893d3d235fab3a06
gd80-09-06 s2t07 Uncle John's Band.flac:4e09a0e948dbe5e04137930d201b1959
gd80-09-06 s2t08 Drums.flac:f0df2ee9bc705b2397fb7895cfdbb9f9
gd80-09-06 s2t09 Space.flac:b342a0c4747c6683f9dd54ea1da8fe71
gd80-09-06 s2t10 Not Fade Away.flac:c02af5daa7debd6836100b3d9a370391
gd80-09-06 s2t11 The Wheel.flac:5eacd9292559310a652d220704628b50
gd80-09-06 s2t12 Uncle John's Band Reprise.flac:475d033114412952fb9f26c498cf6845
gd80-09-06 s2t13 Playin' In The Band Reprise.flac:a07ef23c4a6fa6a13761453fd0b405e9
gd80-09-06 s2t14 Sugar Magnolia.flac:5b1d9d75a73ee6c311283c6c5bc37b06
gd80-09-06 s2t15 Encore Break.flac:d9eafabb89771fbd0fcc8af5792fc0af
gd80-09-06 s2t16 One More Saturday Night.flac:025d2ce225018760fbc43bb3daa0da7f
gd80-09-06 s2t17 Brokedown Palace.flac:d530f795c11be4157179763ff9213568
flac-md5
c146cf2ec27d6ac1a106d61ab06cf5b2 *gd80-09-06 s1t01 Crowd.flac
82bae2fe9a5ac30d08d945218a86e27b *gd80-09-06 s1t02 Alabama Getaway.flac
3d4dc750d6f89faf4d2346b3174d8f54 *gd80-09-06 s1t03 Greatest Story Ever Told.flac
e4eda804ebef08b572a4c7b4536ffa6a *gd80-09-06 s1t04 Sugaree.flac
00d62d3095d651681e8f484124cf99bd *gd80-09-06 s1t05 Me & My Uncle.flac
3009f8253d79d242e119eca6f4c06c1b *gd80-09-06 s1t06 Mexicali Blues.flac
984ae2de515f1373d8b923d22779ae93 *gd80-09-06 s1t07 Tennessee Jed.flac
b9f38e8dcd9f10bca2cbae42e4179b71 *gd80-09-06 s1t08 Feel Like A Stranger.flac
a1ea49d58adbec86d1908821f546a1a3 *gd80-09-06 s1t09 Friend Of The Devil.flac
eb7a6803ce858f09c20003eecc02cfe6 *gd80-09-06 s1t10 Far From Me.flac
f31d97e5e123bee8eb41c35658fc21be *gd80-09-06 s1t11 Little Red Rooster.flac
35debbdc8a6213078cf3b4b754eac337 *gd80-09-06 s1t12 China Cat Sunflower.flac
8392454dc33b4ce4625607d0e795218c *gd80-09-06 s1t13 I Know You Rider.flac
0ff5d0925037bc1c406eaa313e60d20a *gd80-09-06 s1t14 Promised Land.flac
5301c5782a13440fc2d08d9162247a88 *gd80-09-06 s2t01 Crowd.flac
52a218d227ea06e8fd8e10760532b3f6 *gd80-09-06 s2t02 Shakedown Street.flac
22ba6c2b846eaaaf041aa82f0a92ccec *gd80-09-06 s2t03 Lost Sailor.flac
a03e5b372cafce3eb68d2782cca2c70c *gd80-09-06 s2t04 Saint Of Circumstance.flac
b6d07fc124280cf0227d47c6acb6f3d7 *gd80-09-06 s2t05 Althea.flac
e669d9b66cef157bc7ab68efeb43b830 *gd80-09-06 s2t06 Playin' In The Band.flac
e62ae1715a6dcb35a2fb6896c23088b6 *gd80-09-06 s2t07 Uncle John's Band.flac
fc374f14394a830e2398a8a46fab13c2 *gd80-09-06 s2t08 Drums.flac
c73e0eef09459d4e5768d337610f6743 *gd80-09-06 s2t09 Space.flac
c41063b9b0272940fb253963a4321e85 *gd80-09-06 s2t10 Not Fade Away.flac
8f3a0fbe46c82d39ee0a51e8c8638273 *gd80-09-06 s2t11 The Wheel.flac
c01937e15a6f6f63595569464afb5371 *gd80-09-06 s2t12 Uncle John's Band Reprise.flac
cf06f44e9103a6b25b06122291e99367 *gd80-09-06 s2t13 Playin' In The Band Reprise.flac
4b97c939dc380a47ef231adedf03e59c *gd80-09-06 s2t14 Sugar Magnolia.flac
22cb1f8bdd35b5b0ad22b53ea8b3c58e *gd80-09-06 s2t15 Encore Break.flac
e952538fd73da41d69e315e031a3dd2a *gd80-09-06 s2t16 One More Saturday Night.flac
37abb3aa7b2ca9a03a2772189c057094 *gd80-09-06 s2t17 Brokedown Palace.flac

Comments
Add Comment
Other Sources (comments)
Nak Dragon > Sony PCM r-500... (8) MAC > ? > CD > EAC > SHNv3;... (0) *Set 1 Only*... (2) Recording by Jim Wise: FOB... (1) Recording Info (Source 1):... (0) flac16; Recording... (0) flac24; Recording... (0) flac24; AUD: 2x... (2) flac16; AUD: 2x... (2) flac16; (FOB)... (0) flac24; (FOB)... (0) flac16; FOB 3 mic... (0) flac16; source: aud... (0) flac24; source: aud... (0) flac24; Recording by... (0) flac16; Recording by... (0) flac16/48kHz; Source... (0)
Date User Comment