Browse Collections Artists Sources   Search Dates

Add Show    List Management    Help


Grateful Dead 05/16/81
Barton Hall, Cornell U, Ithaca, NY
Comments Add Comment    Source Collectors    Add to Collection    Add to Want List    History
Source # 142973 Other Sources
Entered by Matt Vernon
Checksums ffp , flac-md5
Disc Counts 0 / 0
Media Size
Date Circulated
Date Added
08/21/2018
08/22/2018
Source Summary flac24; Set 2 Source Info: George Sterry's Master Audience Cassettes; Unknown mics > Sony D3 (TDK-SA90); Transfer Info: Cassette Masters (Nakamichi CR-7A)> Tascam DA-3000 (DSF 1-bit/5.6 MHz)> KORG AudioGate 4 (.wav 24-bit/96k)> Adobe Audition 3.01 (24-bit/96k) > TLH flac2496 
  Archive
Source Information - Download Text | Download Zip
Grateful Dead
Barton Hall
Cornell University
Ithaca, NY
Saturday May 16, 1981

Source Info:
George Sterry's Master Audience Cassettes; Unknown mics > Sony D3 (TDK-SA90)

Transfer Info:
Cassette Masters (Nakamichi CR-7A)> Tascam DA-3000 (DSF 1-bit/5.6 MHz)> KORG AudioGate 4 (.wav 24-bit/96k)> Adobe Audition 3.01 (24-bit/96k) > TLH flac2496

Notes:
- Thanks to George Sterry for the master cassette recording
- Thanks to David Beckwith for liberating the tapes from eBay
- Thanks to Charlie Miller for the transfer and coordinating this effort
- Thanks to Hunter Seamons and the folks responsible for the shnid107484 matrix source which supplies the crowd and first 12:24 of "Shakedown Street"
- Thanks to Frank Streeter and the folks responsible for the shnid139959 Sennheiser 421 source which supplies a 0:07 patch in the transition between "Saint Of Circumstance" and "Spanish Jam", as well as the "Encore Break" and first few notes of "Uncle John's Band" (0:34 total)
- Pitch corrected
- eBay tape liberation

Mastered by Scott Clugston
July 2018

Set Two:
s2t01 - Crowd
s2t02 - Shakedown Street >
s2t03 - Bertha >
s2t04 - Lost Sailor >
s2t05 - Saint Of Circumstance >
        Jam >
s2t06 - Spanish Jam >
        Jam >
s2t07 - Drums >
s2t08 - Space >
s2t09 - Truckin' >
        Nobody's Fault Jam >
s2t10 - Stella Blue >
s2t11 - Goin' Down The Road Feeling Bad ->
s2t12 - One More Saturday Night
s2t13 - Encore Break
s2t14 - Uncle John's Band


    length     expanded size    cdr  WAVE problems  fmt   ratio  filename
     0:28.067      16166444 B   cxx   --   ---xx   flac  0.4994  gd81-05-16 s2t01 Crowd.flac
    16:20.747     564910124 B   cxx   --   ---xx   flac  0.6138  gd81-05-16 s2t02 Shakedown Street.flac
     5:50.520     201899564 B   cxx   --   ---xx   flac  0.7333  gd81-05-16 s2t03 Bertha.flac
     6:26.667     222720044 B   cxx   --   ---xx   flac  0.7232  gd81-05-16 s2t04 Lost Sailor.flac
     8:03.520     278507564 B   cxx   --   ---xx   flac  0.7340  gd81-05-16 s2t05 Saint Of Circumstance.flac
     8:16.787     286149164 B   cxx   --   ---xx   flac  0.7323  gd81-05-16 s2t06 Spanish Jam.flac
     9:41.560     334978604 B   cxx   --   ---xx   flac  0.6838  gd81-05-16 s2t07 Drums.flac
     4:18.387     148830764 B   cxx   --   ---xx   flac  0.7136  gd81-05-16 s2t08 Space.flac
     8:37.733     298214444 B   cxx   --   ---xx   flac  0.7399  gd81-05-16 s2t09 Truckin' - Nobody's Fault Jam.flac
     9:57.173     343971884 B   cxx   --   ---xx   flac  0.7214  gd81-05-16 s2t10 Stella Blue.flac
     6:23.760     221045804 B   cxx   --   ---xx   flac  0.7369  gd81-05-16 s2t11 Goin' Down The Road Feeling Bad.flac
     4:09.280     143585324 B   cxx   --   ---xx   flac  0.7393  gd81-05-16 s2t12 One More Saturday Night.flac
     0:35.973      20720684 B   cxx   --   ---xx   flac  0.6215  gd81-05-16 s2t13 Encore Break.flac
     9:17.623     321190952 B   cxx   --   ---xx   flac  0.7393  gd81-05-16 s2t14 Uncle John's Band.flac
    98:27.796    3402891364 B                            0.7057  (14 files)



Show Checksums
ffp
gd81-05-16 s2t01 Crowd.flac:bb1630a21882ef4ce79c4aa073efa27d
gd81-05-16 s2t02 Shakedown Street.flac:1d1854b159bd762694695119f92bbe01
gd81-05-16 s2t03 Bertha.flac:2e551d2f79855f634b0be90a58c82fc7
gd81-05-16 s2t04 Lost Sailor.flac:79b85e264739765828b3e8356f4d19dc
gd81-05-16 s2t05 Saint Of Circumstance.flac:6c87dc04c9685c56a3e7a93a32dc5e20
gd81-05-16 s2t06 Spanish Jam.flac:e4b70e5a8d2149015da341e07fbb52fe
gd81-05-16 s2t07 Drums.flac:89abd8577c3dd76fb32ba150e9c3281e
gd81-05-16 s2t08 Space.flac:7d536b7b599bffb7447c654faed781ce
gd81-05-16 s2t09 Truckin' - Nobody's Fault Jam.flac:a3d25788c1656c9d28d25c86405f9bd2
gd81-05-16 s2t10 Stella Blue.flac:219d9fba8730dc2c1ad111ad977d89b2
gd81-05-16 s2t11 Goin' Down The Road Feeling Bad.flac:0bfd89c71d62912f37676e2eea7a53d1
gd81-05-16 s2t12 One More Saturday Night.flac:2e988fc8a00d126de936350d7badbaa5
gd81-05-16 s2t13 Encore Break.flac:d015aabba54ff62a53af7a88121e9f87
gd81-05-16 s2t14 Uncle John's Band.flac:42ad6f573629451a0ad8e0ca9660f1f5
flac-md5
d10ac432a6dcae4f26a589bc87569f79 *gd81-05-16 s2t01 Crowd.flac
973e57738746dd1f86979a81ad00807b *gd81-05-16 s2t02 Shakedown Street.flac
0611167fe94a7f0e609ac5667ac3538a *gd81-05-16 s2t03 Bertha.flac
998551c37843bb2b629f9c5a50fae394 *gd81-05-16 s2t04 Lost Sailor.flac
b3cf0df60253fb5fa53d8ce05e8bc2f4 *gd81-05-16 s2t05 Saint Of Circumstance.flac
0291915ca8f4cf58ef1974f2a32b6acd *gd81-05-16 s2t06 Spanish Jam.flac
9d23155f1f2dabe37c1a4c919b6d1c36 *gd81-05-16 s2t07 Drums.flac
40f200970f289c2ea2345cb4fc418692 *gd81-05-16 s2t08 Space.flac
c53ce9f3287693b83823f5c5f5720675 *gd81-05-16 s2t09 Truckin' - Nobody's Fault Jam.flac
468dd44c102539894dade70deecbe7fd *gd81-05-16 s2t10 Stella Blue.flac
50c977dfd3f3a25c244787f68db8e856 *gd81-05-16 s2t11 Goin' Down The Road Feeling Bad.flac
03cd4c61eda733b647ac5140c22f998d *gd81-05-16 s2t12 One More Saturday Night.flac
50353a29584dff13100983e147dc6558 *gd81-05-16 s2t13 Encore Break.flac
d2c2b8194284f206eec9cc7e053f0f5c *gd81-05-16 s2t14 Uncle John's Band.flac

Comments
Add Comment
Other Sources (comments)
Recording by Jim Wise. Senn... (3) Recording by Jim Wise. FOB>... (1) Recording by Jim Wise. Main... (0) flac16; Recording by... (1) flac16; Set 1: SBD... (1) flac16; Matrix by... (0) flac16; Source Info:... (0) flac24; Source Info:... (0) flac16/48kHz; Set 2... (0)
Date User Comment