Browse Collections Artists Sources   Search Dates

Add Show    List Management    Help


Grateful Dead 05/16/81
Barton Hall, Cornell U, Ithaca, NY
Comments Add Comment    Source Collectors    Add to Collection    Add to Want List    History
Source # 142974 Other Sources
Entered by Matt Vernon
Checksums ffp , flac-md5
Disc Counts 0 / 0
Media Size
Date Circulated
Date Added
08/21/2018
08/22/2018
Source Summary flac16/48kHz; Set 2 Source Info: George Sterry's Master Audience Cassettes; Unknown mics > Sony D3 (TDK-SA90); Transfer Info: Cassette Masters (Nakamichi CR-7A)> Tascam DA-3000 (DSF 1-bit/5.6 MHz)> KORG AudioGate 4 (.wav 24-bit/96k)> Adobe Audition 3.01 (24-bit/96k) > TLH flac2496; ; 24-bit > 16-bit via dBpoweramp 
  Archive
Source Information - Download Text | Download Zip
Grateful Dead
Barton Hall
Cornell University
Ithaca, NY
Saturday May 16, 1981

This is a 16/48 fileset. 24-bit > 16-bit via dBpoweramp

Source Info:
George Sterry's Master Audience Cassettes; Unknown mics > Sony D3 (TDK-SA90)

Transfer Info:
Cassette Masters (Nakamichi CR-7A)> Tascam DA-3000 (DSF 1-bit/5.6 MHz)> KORG AudioGate 4 (.wav 24-bit/96k)> Adobe Audition 3.01 (24-bit/96k) > TLH flac2496

Notes:
- Thanks to George Sterry for the master cassette recording
- Thanks to David Beckwith for liberating the tapes from eBay
- Thanks to Charlie Miller for the transfer and coordinating this effort
- Thanks to Hunter Seamons and the folks responsible for the shnid107484 matrix source which supplies the the crowd and first 12:24 of "Shakedown Street"
- Thanks to Frank Streeter and the folks responsible for the shnid139959 Sennheiser 421 source which supplies a 0:07 patch in the transition between "Saint Of Circumstance" and "Spanish Jam", as well as the "Encore Break" and first few notes of "Uncle John's Band" (0:34 total)
- Pitch corrected
- eBay tape liberation

Mastered by Scott Clugston
July 2018

Set Two:
s2t01 - Crowd
s2t02 - Shakedown Street >
s2t03 - Bertha >
s2t04 - Lost Sailor >
s2t05 - Saint Of Circumstance >
        Jam >
s2t06 - Spanish Jam >
        Jam >
s2t07 - Drums >
s2t08 - Space >
s2t09 - Truckin' >
        Nobody's Fault Jam >
s2t10 - Stella Blue >
s2t11 - Goin' Down The Road Feeling Bad ->
s2t12 - One More Saturday Night
s2t13 - Encore Break
s2t14 - Uncle John's Band


    length     expanded size    cdr  WAVE problems  fmt   ratio  filename
     0:28.067       5388844 B   cxx   --   ---xx   flac  0.4690  gd81-05-16 s2t01 Crowd.flac
    16:20.747     188303404 B   cxx   --   ---xx   flac  0.5975  gd81-05-16 s2t02 Shakedown Street.flac
     5:50.520      67299884 B   cxx   --   ---xx   flac  0.7243  gd81-05-16 s2t03 Bertha.flac
     6:26.667      74240044 B   cxx   --   ---xx   flac  0.6962  gd81-05-16 s2t04 Lost Sailor.flac
     8:03.520      92835884 B   cxx   --   ---xx   flac  0.7244  gd81-05-16 s2t05 Saint Of Circumstance.flac
     8:16.787      95383084 B   cxx   --   ---xx   flac  0.7207  gd81-05-16 s2t06 Spanish Jam.flac
     9:41.560     111659564 B   cxx   --   ---xx   flac  0.6223  gd81-05-16 s2t07 Drums.flac
     4:18.387      49610284 B   cxx   --   ---xx   flac  0.6421  gd81-05-16 s2t08 Space.flac
     8:37.733      99404844 B   cxx   --   ---xx   flac  0.7198  gd81-05-16 s2t09 Truckin' - Nobody's Fault Jam.flac
     9:57.173     114657324 B   cxx   --   ---xx   flac  0.6704  gd81-05-16 s2t10 Stella Blue.flac
     6:23.760      73681964 B   cxx   --   ---xx   flac  0.7181  gd81-05-16 s2t11 Goin' Down The Road Feeling Bad.flac
     4:09.280      47861804 B   cxx   --   ---xx   flac  0.7248  gd81-05-16 s2t12 One More Saturday Night.flac
     0:35.973       6906924 B   cxx   --   ---xx   flac  0.4677  gd81-05-16 s2t13 Encore Break.flac
     9:17.623     107063680 B   cxx   --   ---xx   flac  0.7185  gd81-05-16 s2t14 Uncle John's Band.flac
    98:27.796    1134297532 B                            0.6779  (14 files)


Show Checksums
ffp
gd81-05-16 s2t01 Crowd.flac:bbffe72d27cf0455b72541eb9a863322
gd81-05-16 s2t02 Shakedown Street.flac:1dd224ee33502b9da06662ba4409c89a
gd81-05-16 s2t03 Bertha.flac:9a7f88e4c354ff787dcb8e150d9fa6f4
gd81-05-16 s2t04 Lost Sailor.flac:331a20dfe9332ded5525a02a43d0d750
gd81-05-16 s2t05 Saint Of Circumstance.flac:24cb8d60f472f5aabdd226f5c6e7fc24
gd81-05-16 s2t06 Spanish Jam.flac:f88e7009a504c9dd7292975cde681c2e
gd81-05-16 s2t07 Drums.flac:fe91802811cdbcb5f8031bcc44d52236
gd81-05-16 s2t08 Space.flac:7f7b1778e9ca268056adf41ad3f0392a
gd81-05-16 s2t09 Truckin' - Nobody's Fault Jam.flac:f75cca3a7ccc5d4cc72bbb4f774a0a58
gd81-05-16 s2t10 Stella Blue.flac:11bb2b7b8fdd458886a0b39624581747
gd81-05-16 s2t11 Goin' Down The Road Feeling Bad.flac:cf79a19debe81a3507de65094bf146ca
gd81-05-16 s2t12 One More Saturday Night.flac:0f866010adbafa7b15dfa73b032f799f
gd81-05-16 s2t13 Encore Break.flac:6218bf190d87300db8eec0034897bab5
gd81-05-16 s2t14 Uncle John's Band.flac:45256d7afcb0b746ecabac8884d10160
flac-md5
89bd4ac7bf6c0341f8bf617aa67f2112 *gd81-05-16 s2t01 Crowd.flac
297bf590227ba4365d365c3796a9d8c1 *gd81-05-16 s2t02 Shakedown Street.flac
3227cd1f6cb9dde17a904a7896651ed0 *gd81-05-16 s2t03 Bertha.flac
f743fd4a45f98733d6417e1c14403b1b *gd81-05-16 s2t04 Lost Sailor.flac
a15c5718a4e3d65d6ada434c3492230b *gd81-05-16 s2t05 Saint Of Circumstance.flac
ce66587068b91a73c59044832afab1e3 *gd81-05-16 s2t06 Spanish Jam.flac
f8e7208270318eca661a9ee8746e8806 *gd81-05-16 s2t07 Drums.flac
a1ce72bf0056a43b24d0cbb6d1cf09ae *gd81-05-16 s2t08 Space.flac
02b060cc1b02b6f359193c5276c146d3 *gd81-05-16 s2t09 Truckin' - Nobody's Fault Jam.flac
86595d7ece07db078d8a3ace4b8da008 *gd81-05-16 s2t10 Stella Blue.flac
69d5211c01af3fc6e15e80f4c04b1be7 *gd81-05-16 s2t11 Goin' Down The Road Feeling Bad.flac
175388d125b9eb93cd5e52d0520b3cc8 *gd81-05-16 s2t12 One More Saturday Night.flac
5e680f052eda9496b861c1ba1fd2af36 *gd81-05-16 s2t13 Encore Break.flac
d1c9da466045f95dc2dd1cae8f5512fe *gd81-05-16 s2t14 Uncle John's Band.flac

Comments
Add Comment
Other Sources (comments)
Recording by Jim Wise. Senn... (3) Recording by Jim Wise. FOB>... (1) Recording by Jim Wise. Main... (0) flac16; Recording by... (1) flac16; Set 1: SBD... (1) flac16; Matrix by... (0) flac16; Source Info:... (0) flac24; Source Info:... (0) flac24; Set 2 Source... (0)
Date User Comment