Browse Collections Artists Sources   Search Dates

Add Show    List Management    Help


Grateful Dead 12/12/81
Fiesta Hall, San Mateo County Fairgrounds, San Mateo, CA
Comments Add Comment    Source Collectors    Add to Collection    Add to Want List    History
Source # 142976 Other Sources
Entered by Matt Vernon
Checksums ffp , flac-md5
Disc Counts 0 / 0
Media Size
Date Circulated
Date Added
08/17/2018
08/22/2018
Source Summary flac16/48kHz; Source Info: Master Audience Cassettes; Nakamichi CM300 mics with CP4 capsules > Sony TC-D5M (dbx)> Frank Streeter's 1st generation (dbx decoded) cassettes (Sony TC-D5M)(Maxell UDXLII-C90); Transfer Info: 1st Generation Cassettes (Nakamichi CR-7A)> Tascam DA-3000 (DSF 1-bit/5.6 MHz)> KORG AudioGate 4 (.wav 24-bit/96k) > Adobe Audition 3.01 (.wav 24-bit/96k) > TLH flac2496; 24-bit > 16-bit via dBpoweramp 
  Archive
Source Information - Download Text | Download Zip
Grateful Dead
Fiesta Hall
San Mateo County Fairgrounds
San Mateo, CA
Saturday December 12th, 1981

This is a 16/48 fileset. 24-bit > 16-bit via dBpoweramp

Source Info:
Master Audience Cassettes; Nakamichi CM300 mics with CP4 capsules > Sony TC-D5M (dbx)> Frank Streeter's 1st generation (dbx decoded) cassettes (Sony TC-D5M)(Maxell UDXLII-C90)

Transfer Info:
1st Generation Cassettes (Nakamichi CR-7A)> Tascam DA-3000 (DSF 1-bit/5.6 MHz)> KORG AudioGate 4 (.wav 24-bit/96k) > Adobe Audition 3.01 (.wav 24-bit/96k) > TLH flac2496

Notes:
- Thanks to Frank Streeter for the 1st generation cassette source
- Thanks to Charlie Miller for the transfer and coordinating this effort
- Thanks to Matt Vernon and Andy Lemieux for the shnid14011 Nakamichi 300 source which supplies "Where Have All The Heroes Gone", "Oh Boy", "Lady Di & I" and "The Boxer", the final few seconds of "One More Saturday Night", as well as most of the "Encore Break" (0:47 total)
- Dance For Disarmament Benefit
- Set One is acoustic with Joan Baez, without Brent
- "Lady Di & I" without Jerry
- "New Minglewood Blues","Little Red Rooster" and "Around & Around" with Matt Kelly
- "It's All Over Now, Baby Blue" with Joan Baez, without Jerry & Brent
- Pitch corrected

Mastered by Scott Clugston
August 2018

Set One: (Joan Baez/Acoustic)
s1t01 - Me & Bobby McGee
s1t02 - Children of the Eighties
s1t03 - Lucifer's Eyes
s1t04 - Warriors of the Sun
s1t05 - Bye Bye Love
s1t06 - Barbara Allen
s1t07 - You Won't Find Me
s1t08 - Where Have All the Heroes Gone
s1t09 - Oh Boy
s1t10 - Lady Di & I
s1t11 - The Boxer

Set Two:
s2t01 - Crowd
s2t02 - New Minglewood Blues >
s2t03 - Little Red Rooster
s2t04 - Deep Elem Blues
s2t05 - Me & My Uncle >
s2t06 - Mexicali Blues
s2t07 - Dire Wolf
s2t08 - Cold Rain & Snow
s2t09 - Around And Around >
s2t10 - One More Saturday Night
s2t11 - Encore Break
s2t12 - It's All Over Now, Baby Blue


    length     expanded size    cdr  WAVE problems  fmt   ratio  filename
     4:39.053      53578284 B   cxx   --   ---xx   flac  0.6545  gd81-12-12 s1t01 Me & Bobby McGee.flac
     6:58.680      80386604 B   cxx   --   ---xx   flac  0.6560  gd81-12-12 s1t02 Children Of The Eighties.flac
     4:06.373      47303724 B   cxx   --   ---xx   flac  0.6432  gd81-12-12 s1t03 Lucifer's Eyes.flac
     8:25.493      97054764 B   cxx   --   ---xx   flac  0.6486  gd81-12-12 s1t04 Warriors Of The Sun.flac
     2:48.760      32401964 B   cxx   --   ---xx   flac  0.6545  gd81-12-12 s1t05 Bye Bye Love.flac
     5:20.653      61565484 B   cxx   --   ---xx   flac  0.6724  gd81-12-12 s1t06 Barbara Allen.flac
     5:37.293      64760364 B   cxx   --   ---xx   flac  0.6703  gd81-12-12 s1t07 You Won't Find Me.flac
     5:39.333      65152044 B   cxx   --   ---xx   flac  0.5561  gd81-12-12 s1t08 Where Have All The Heroes Gone.flac
     3:58.920      45872684 B   cxx   --   ---xx   flac  0.5401  gd81-12-12 s1t09 Oh Boy.flac
     5:35.533      64422444 B   cxx   --   ---xx   flac  0.5187  gd81-12-12 s1t10 Lady Di & I.flac
     3:54.893      45099564 B   cxx   --   ---xx   flac  0.5648  gd81-12-12 s1t11 The Boxer.flac
     1:03.533      12198444 B   cxx   --   ---xx   flac  0.5711  gd81-12-12 s2t01 Crowd.flac
     7:30.000      86400044 B   cxx   --   ---xx   flac  0.6618  gd81-12-12 s2t02 New Minglewood Blues.flac
     8:12.320      94525484 B   cxx   --   ---xx   flac  0.6552  gd81-12-12 s2t03 Little Red Rooster.flac
     5:27.173      62817324 B   cxx   --   ---xx   flac  0.6602  gd81-12-12 s2t04 Deep Elem Blues.flac
     2:59.560      34475564 B   cxx   --   ---xx   flac  0.6638  gd81-12-12 s2t05 Me & My Uncle.flac
     4:58.987      57405484 B   cxx   --   ---xx   flac  0.6656  gd81-12-12 s2t06 Mexicali Blues.flac
     2:59.027      34373164 B   cxx   --   ---xx   flac  0.6551  gd81-12-12 s2t07 Dire Wolf.flac
     6:31.920      75248684 B   cxx   --   ---xx   flac  0.6689  gd81-12-12 s2t08 Cold Rain & Snow.flac
     3:40.440      42324524 B   cxx   --   ---xx   flac  0.6582  gd81-12-12 s2t09 Around & Around.flac
     4:21.827      50270764 B   cxx   --   ---xx   flac  0.6686  gd81-12-12 s2t10 One More Saturday Night.flac
     0:58.013      11138604 B   cxx   --   ---xx   flac  0.5216  gd81-12-12 s2t11 Encore Break.flac
     5:34.473      64218804 B   cxx   --   ---xx   flac  0.6341  gd81-12-12 s2t12 It's All Over Now, Baby Blue.flac
   111:22.259    1282994812 B                            0.6365  (23 files)


Show Checksums
ffp
gd81-12-12 s1t01 Me & Bobby McGee.flac:989ce07b96a88701f6b49136b364ddb6
gd81-12-12 s1t02 Children Of The Eighties.flac:0821cbbf52b732482f7cdb21abe5d3ca
gd81-12-12 s1t03 Lucifer's Eyes.flac:59be42f095ffe4eaad3f2d6257b422ec
gd81-12-12 s1t04 Warriors Of The Sun.flac:bded0ac5089a905d81f8968cf303fe5c
gd81-12-12 s1t05 Bye Bye Love.flac:683d0ba8605ccb75f70ec8450f95501a
gd81-12-12 s1t06 Barbara Allen.flac:d03f8950d36754fa065dc98c2d09b964
gd81-12-12 s1t07 You Won't Find Me.flac:ec531fbb3a10334912c48efab615e5eb
gd81-12-12 s1t08 Where Have All The Heroes Gone.flac:a0b49734cf9caecb039ad99a39d1c748
gd81-12-12 s1t09 Oh Boy.flac:4da03047f9f3348c100afaeb3a697f8c
gd81-12-12 s1t10 Lady Di & I.flac:e83d67aa79df8436521df12c96abb930
gd81-12-12 s1t11 The Boxer.flac:b5842b78bb159ff30cb91db523d36d21
gd81-12-12 s2t01 Crowd.flac:c0cdb3d4b1bbe64f1851af5e4ceec53b
gd81-12-12 s2t02 New Minglewood Blues.flac:9042cc26ea609f068e6aae2c493e496c
gd81-12-12 s2t03 Little Red Rooster.flac:646150afa364da2f949efd4d7136cd18
gd81-12-12 s2t04 Deep Elem Blues.flac:261f722b71eb612f1caf3b1eb9b46c59
gd81-12-12 s2t05 Me & My Uncle.flac:edd741f6a3d7415dd89e38d4183bf9cd
gd81-12-12 s2t06 Mexicali Blues.flac:2d5ec8ded8ffa424376ad1c6cf249e03
gd81-12-12 s2t07 Dire Wolf.flac:23496552cc8543e25b0f3b94a63ce4c5
gd81-12-12 s2t08 Cold Rain & Snow.flac:23b2f1a31bc33cf7d91b1d00711c7da9
gd81-12-12 s2t09 Around & Around.flac:74603ebc0627731f4d198803022074ea
gd81-12-12 s2t10 One More Saturday Night.flac:cf33a4f85f60e86f275f7ce4c867f3aa
gd81-12-12 s2t11 Encore Break.flac:5c0fcdd89b300b5b6bdaf471ae2f8ac6
gd81-12-12 s2t12 It's All Over Now, Baby Blue.flac:2d4d33a5af1b65bd031bec1ab66d1ea0
flac-md5
e73c16a5e82e294fe1310721fa9376ee *gd81-12-12 s1t01 Me & Bobby McGee.flac
7d42e1cf27cbeed8727d42683e1a2e72 *gd81-12-12 s1t02 Children Of The Eighties.flac
3ae0c2299d080ecd74251c49c94d545f *gd81-12-12 s1t03 Lucifer's Eyes.flac
7bc848219a21278df717c3e5a3cfbb0c *gd81-12-12 s1t04 Warriors Of The Sun.flac
c1798fb3eb3c4143d3194f92f4911741 *gd81-12-12 s1t05 Bye Bye Love.flac
f9aec4a6c35ac228240c09619dc8cdac *gd81-12-12 s1t06 Barbara Allen.flac
8a0c688eeea68debc9fb2abcbd74d1f2 *gd81-12-12 s1t07 You Won't Find Me.flac
4d7b0612e7b6c23c094e0544e3fa7835 *gd81-12-12 s1t08 Where Have All The Heroes Gone.flac
38e01468da26555a267aa6c89aab073a *gd81-12-12 s1t09 Oh Boy.flac
6982871bae96ef43cbd6f257a70827dc *gd81-12-12 s1t10 Lady Di & I.flac
b4765426ba1802fd05629285d93d64b8 *gd81-12-12 s1t11 The Boxer.flac
425a4f649ef762a2d1b15bc5e264927e *gd81-12-12 s2t01 Crowd.flac
cfc1c27babf9436cc7fc7841d09ef4cd *gd81-12-12 s2t02 New Minglewood Blues.flac
c5df45c79c0572123165f1fce412ccfc *gd81-12-12 s2t03 Little Red Rooster.flac
7cd0fc61bc7920f40749697cbf2621a8 *gd81-12-12 s2t04 Deep Elem Blues.flac
f40e728f24372cff95746c358709f228 *gd81-12-12 s2t05 Me & My Uncle.flac
674770123ebd704c5e1bccb680f4646a *gd81-12-12 s2t06 Mexicali Blues.flac
4caa683ce5fb05066368e951258f0355 *gd81-12-12 s2t07 Dire Wolf.flac
45df757b621fa38381d03e3e34456333 *gd81-12-12 s2t08 Cold Rain & Snow.flac
68ce64bee3baef2ee483b8cb840204e8 *gd81-12-12 s2t09 Around & Around.flac
69303f0397194b3d77cdbe868365a873 *gd81-12-12 s2t10 One More Saturday Night.flac
cde2d1a315f1dd95bebda87114a13a14 *gd81-12-12 s2t11 Encore Break.flac
93435a8c97b2bd5146a87222048e4c4c *gd81-12-12 s2t12 It's All Over Now, Baby Blue.flac

Comments
Add Comment
Other Sources (comments)
MAC w/ Nak 300's>Sony... (1) flac16; Recording... (3) flac24; Source Info:... (0)
Date User Comment