Browse Collections Artists Sources   Search Dates

Add Show    List Management    Help


Grateful Dead 08/31/80
Capital Centre, Landover, MD
Comments Add Comment    Source Collectors    Add to Collection    Add to Want List    History
Source # 142993 Other Sources
Entered by Matt Vernon
Checksums ffp , flac-md5
Disc Counts 0 / 0
Media Size
Date Circulated
Date Added
08/24/2018
08/24/2018
Source Summary flac16/48kHz; Source Info: George Sterry's Master Audience Cassettes; Unknown mics > Sony TC158SD (Maxell UDXLII-C90); Transfer Info: Master Cassettes (Nakamichi CR-7A)> Tascam DA-3000 (DSF 1-bit/5.6 MHz)> KORG AudioGate 4 (.wav 24-bit/96k)> Adobe Audition 3.01 (24-bit/96k) > TLH flac2496; 24-bit > 16-bit via dBpoweramp 
  Archive
Source Information - Download Text | Download Zip
Grateful Dead
Capital Centre
Landover, MD
Sunday August 31st, 1980

This is a 16/48 fileset. 24-bit > 16-bit via dBpoweramp

Source Info:

George Sterry's Master Audience Cassettes; Unknown mics > Sony TC158SD (Maxell UDXLII-C90)


Transfer Info:
Master Cassettes (Nakamichi CR-7A)> Tascam DA-3000 (DSF 1-bit/5.6 MHz)> KORG AudioGate 4 (.wav 24-bit/96k)> Adobe Audition 3.01 (24-bit/96k) > TLH flac2496

Notes:
- Thanks to George Sterry for the master cassette recording
- Thanks to David Beckwith for liberating the tapes from eBay
- Thanks to Charlie Miller for the transfer and coordinating this effort
- Other One space included in "The Other One"
- Pitch corrected

Mastered by Scott Clugston
July 2018


Set One:
s1t01 - Alabama Getaway >

s1t02 - Promised Land

s1t03 - They Love Each Other

s1t04 - Mama Tried >

s1t05 - Mexicali Blues

s1t06 - Althea

s1t07 - Little Red Rooster

s1t08 - Tennessee Jed

s1t09 - Far From Me

s1t10 - Lazy Lightning >

s1t11 - Supplication

s1t12 - Deal



Set Two:

s2t01 - Crowd

s2t02 - Greatest Story Ever Told >

s2t03 - Uncle John's Band >

s2t04 - Lost Sailor >

s2t05 - Saint Of Circumstance >

s2t06 - Comes A Time >

s2t07 - Truckin' >

s2t08 - Drums >

s2t09 - Space >

s2t10 - The Other One >

s2t11 - Stella Blue >

s2t12 - I Need A Miracle >

s2t13 - Good Lovin'
Encore:

s2t14 - Brokedown Palace




    length     expanded size    cdr  WAVE problems  fmt   ratio  filename
     5:13.000      60096044 B   cxx   --   ---xx   flac  0.5967  gd80-08-31 s1t01 Alabama Getaway.flac
     4:20.013      49922604 B   cxx   --   ---xx   flac  0.6049  gd80-08-31 s1t02 Promised Land.flac
     7:38.147      87964204 B   cxx   --   ---xx   flac  0.5812  gd80-08-31 s1t03 They Love Each Other.flac
     2:36.053      29962284 B   cxx   --   ---xx   flac  0.5982  gd80-08-31 s1t04 Mama Tried.flac
     5:03.267      58227244 B   cxx   --   ---xx   flac  0.5924  gd80-08-31 s1t05 Mexicali Blues.flac
     8:28.840      97697324 B   cxx   --   ---xx   flac  0.5821  gd80-08-31 s1t06 Althea.flac
     8:11.987      94461484 B   cxx   --   ---xx   flac  0.5783  gd80-08-31 s1t07 Little Red Rooster.flac
     9:32.213     109865004 B   cxx   --   ---xx   flac  0.5867  gd80-08-31 s1t08 Tennessee Jed.flac
     4:39.013      53570604 B   cxx   --   ---xx   flac  0.5885  gd80-08-31 s1t09 Far From Me.flac
     3:20.080      38415404 B   cxx   --   ---xx   flac  0.6030  gd80-08-31 s1t10 Lazy Lightning.flac
     7:14.853      83491884 B   cxx   --   ---xx   flac  0.5866  gd80-08-31 s1t11 Supplication.flac
     4:42.238      54189716 B   cxx   --   ---xx   flac  0.6052  gd80-08-31 s1t12 Deal.flac
     0:54.800      10521644 B   cxx   --   ---xx   flac  0.5087  gd80-08-31 s2t01 Crowd.flac
     3:54.680      45058604 B   cxx   --   ---xx   flac  0.5887  gd80-08-31 s2t02 Greatest Story Ever Told.flac
     8:57.213     103145004 B   cxx   --   ---xx   flac  0.5898  gd80-08-31 s2t03 Uncle John's Band.flac
     6:46.600      78067244 B   cxx   --   ---xx   flac  0.5597  gd80-08-31 s2t04 Lost Sailor.flac
     6:59.667      80576044 B   cxx   --   ---xx   flac  0.5934  gd80-08-31 s2t05 Saint Of Circumstance.flac
     9:20.147     107548204 B   cxx   --   ---xx   flac  0.5461  gd80-08-31 s2t06 Comes A Time.flac
     8:45.813     100956204 B   cxx   --   ---xx   flac  0.6068  gd80-08-31 s2t07 Truckin'.flac
    11:34.827     133406764 B   cxx   --   ---xx   flac  0.5633  gd80-08-31 s2t08 Drums.flac
     4:10.653      48125484 B   cxx   --   ---xx   flac  0.5461  gd80-08-31 s2t09 Space.flac
     8:11.547      94377004 B   cxx   --   ---xx   flac  0.5751  gd80-08-31 s2t10 The Other One.flac
     9:34.480     110300204 B   cxx   --   ---xx   flac  0.5449  gd80-08-31 s2t11 Stella Blue.flac
     4:01.613      46389804 B   cxx   --   ---xx   flac  0.5989  gd80-08-31 s2t12 I Need A Miracle.flac
     8:10.840      94241324 B   cxx   --   ---xx   flac  0.6020  gd80-08-31 s2t13 Good Lovin'.flac
     6:41.450      77078452 B   cxx   --   ---xx   flac  0.5781  gd80-08-31 s2t14 Brokedown Palace.flac
   169:04.035    1947655784 B                            0.5808  (26 files)


Show Checksums
ffp
gd80-08-31 s1t01 Alabama Getaway.flac:8043ef4a952847fd1b0af505bdb1684b
gd80-08-31 s1t02 Promised Land.flac:0f32881ece5c81209b685edf870e5305
gd80-08-31 s1t03 They Love Each Other.flac:f3e76507c8446a8c6506456e7cab97c1
gd80-08-31 s1t04 Mama Tried.flac:44fa1f99ad9f5f0737fa6b9a83432121
gd80-08-31 s1t05 Mexicali Blues.flac:71592e50becd465e19d7784935db7ca8
gd80-08-31 s1t06 Althea.flac:75f0677e20f986ced6b09dcb5568fee0
gd80-08-31 s1t07 Little Red Rooster.flac:dd06eb12e90d2765abd0da98160bfc7d
gd80-08-31 s1t08 Tennessee Jed.flac:3880fb3eae491594a0ada0711df3da77
gd80-08-31 s1t09 Far From Me.flac:fb98ec39189ad2defb3f1ec6c39343a3
gd80-08-31 s1t10 Lazy Lightning.flac:62ec781b783f78252184a0b8ab294e70
gd80-08-31 s1t11 Supplication.flac:9199664b19d918ef82a9f1bcfe9818df
gd80-08-31 s1t12 Deal.flac:d05c4e4c68c89b3c36dbd6468bf339d4
gd80-08-31 s2t01 Crowd.flac:8abe3fb44d8f279c520fafc562be8545
gd80-08-31 s2t02 Greatest Story Ever Told.flac:b4df7ec07df359e1fe3b1a45bd7ed177
gd80-08-31 s2t03 Uncle John's Band.flac:e7b31bef0c1eb917fa20b9754e06f5ef
gd80-08-31 s2t04 Lost Sailor.flac:c77d09a14dea48694fa9fac44b001631
gd80-08-31 s2t05 Saint Of Circumstance.flac:2faea8b2b6a91504aca36b77a5b475b6
gd80-08-31 s2t06 Comes A Time.flac:981c39c0d0e750d505472527310363af
gd80-08-31 s2t07 Truckin'.flac:d3c48778cbdeb5c0836f10758aacac55
gd80-08-31 s2t08 Drums.flac:20d59ca8fd15dacb141eae448c9586f4
gd80-08-31 s2t09 Space.flac:bf92e1508390a2368b75fd8f90d30cbc
gd80-08-31 s2t10 The Other One.flac:86eb6c90c349f728c92e673d2eab6610
gd80-08-31 s2t11 Stella Blue.flac:b95630513795b8793357ed8f484d102a
gd80-08-31 s2t12 I Need A Miracle.flac:b3c439d9a50c5e497c445e4a6815742b
gd80-08-31 s2t13 Good Lovin'.flac:e174d7ca4ee1962a47752aac27a9c1b3
gd80-08-31 s2t14 Brokedown Palace.flac:bcdb29ab7d81d48fbe40f0fcb8b31ab9
flac-md5
3d0410fc23de8ea17aab112775ec611a *gd80-08-31 s1t01 Alabama Getaway.flac
65ec1bb2856e614829713cdc5cd9d80d *gd80-08-31 s1t02 Promised Land.flac
6528a43c04f3837d5e088613841cd30e *gd80-08-31 s1t03 They Love Each Other.flac
9473ebec9f1fedd6f05af8bf26a7fe58 *gd80-08-31 s1t04 Mama Tried.flac
867b05a534f63d793ea8a74f48d9d6da *gd80-08-31 s1t05 Mexicali Blues.flac
5038611986cb640299ff982c359fe2ee *gd80-08-31 s1t06 Althea.flac
a9df4daf48c3cf14272386c0bc729ccc *gd80-08-31 s1t07 Little Red Rooster.flac
323bec1bf4d03ce5aea984182ac72751 *gd80-08-31 s1t08 Tennessee Jed.flac
46252363bebe3fe5543631b508229b2a *gd80-08-31 s1t09 Far From Me.flac
b207587496f2827399188ba3c8ee6d8c *gd80-08-31 s1t10 Lazy Lightning.flac
98a4b2280e75e54ef350582a9fc63e1a *gd80-08-31 s1t11 Supplication.flac
258e8dbdabe856b838b167b1d589bd6b *gd80-08-31 s1t12 Deal.flac
042fb1fd29d0041ebafb1d19c0dcd023 *gd80-08-31 s2t01 Crowd.flac
2ad35b9c986873ffb6291c28d84868e3 *gd80-08-31 s2t02 Greatest Story Ever Told.flac
997a2b315165d9d116f0c123f75aedaf *gd80-08-31 s2t03 Uncle John's Band.flac
f928b2fe2fbb0edd04fc87af221946e8 *gd80-08-31 s2t04 Lost Sailor.flac
ffacc0e4e7bb6c6724013ad7c0674225 *gd80-08-31 s2t05 Saint Of Circumstance.flac
6ae62b744e6177b0680028b3076c4d9e *gd80-08-31 s2t06 Comes A Time.flac
c40db1acf2690b10f131a3db74cb3579 *gd80-08-31 s2t07 Truckin'.flac
0572e7522af12d8701ea2c721ed8b0bc *gd80-08-31 s2t08 Drums.flac
2735434c971dcfae7c232da97b300500 *gd80-08-31 s2t09 Space.flac
06f261e97af9bf4f94de712960183a0c *gd80-08-31 s2t10 The Other One.flac
ab715f89ce3c5aa03782dbdb456e946e *gd80-08-31 s2t11 Stella Blue.flac
0dc13a6e1daeaaeb8bb3f473bedc680d *gd80-08-31 s2t12 I Need A Miracle.flac
415cea4517dc9119b22c7b0a2ace16b9 *gd80-08-31 s2t13 Good Lovin'.flac
ec185082df1cab343ef6f21022c8f107 *gd80-08-31 s2t14 Brokedown Palace.flac

Comments
Add Comment
Other Sources (comments)
Recording by Jim Wise:... (3) Audience (unknown equipment... (2) AUD, SBD combo: Set 1:... (0) flac16; Recording by... (0) flac16; Nakamichi... (0) flac16; Recorded By... (0) flac16; Recording... (0) flac24; Source Info:... (0)
Date User Comment