Browse Collections Artists Sources   Search Dates

Add Show    List Management    Help


Grateful Dead 08/30/83
Silva Hall, Hult Center, Eugene, OR
Comments Add Comment    Source Collectors    Add to Collection    Add to Want List    History
Source # 142996 Other Sources
Entered by Matt Vernon
Checksums ffp , flac-md5
Disc Counts 0 / 0
Media Size
Date Circulated
Date Added

08/24/2018
Source Summary flac16/44.1kh Source: MAC: Beyer M201's X-Y 7'up > Sony TCD5M no dolby Denon DXM 90 Metal x 2 Location: ~70 feet from stage, DFC Transfer: Nakamichi CR-5A (24/96) > Tascam DR680|SD > i7Windows7 Audacity > cdwav editor > TLH flac level 8 Mastered: Executive Crew Kyle Holbrook Chris Kidwell Tom Pinney Transferred: Kyle Holbrook 
  Archive
Source Information - Download Text | Download Zip
Date Grateful Dead
1983-08-30
Silva Hall at the Hult Center
Eugene OR

d1t01 - Feel Like A Stranger  /
d1t02 - Candyman  /
d1t03 - My Brother Esau   /
d1t04 - Dire Wolf   /
d1t05 - Little Red Rooster  /
d1t06 - Tennessee Jed      //
d1t07 - Lazy Lightnin' > Supplication >
d1t08 - Deal

d2t01 - Touch Of Grey >
d2t02 - Samson And Delilah
d2t03 - Terrapin Station >
d2t04 - Drums >
d2t05 - Space >     //
d2t06 - Throwing Stones >
d2t07 - Not Fade Away >
d2t08 - Wharf Rat >
d2t09 - Sugar Magnolia
d2t10 - Encore Brokedown Palace

/  Tape paused between songs
// Tape Flip


Source:   MAC: Beyer M201's X-Y 7'up > Sony TCD5M no dolby
          Denon DXM 90 Metal x 2
Location: ~70 feet from stage, DFC
Transfer: Nakamichi CR-5A (24/96) > Tascam DR680|SD > i7Windows7
          Audacity > cdwav editor > TLH flac level 8
          This is 16 bit copy
Mastered: Executive Crew Kyle Holbrook Chris Kidwell Tom Pinney
Transferred: Kyle Holbrook
==================================================================================================================
The tour story:
We met Ken Kesey on the street across from the restaurant we ate breakfast at in Eugene. I would not have know it was him by face, but one of us shouted "Hey Ken" and then as he walked toward us said in a lower voice, "That's Ken Kesey". We were standing in front of Chris' Saab with the D5 on the hood, headphones plugged in and letting some new friends we made in the restaurant listen to the night one recording. So, Ken Kesey walks up, says "Hey fellas", points to the deck and asks me, "Is that Last night?"; I say yes, he asks to listen. We handed him the headphones (He IS/was tall) he took a quick listen, handed the phones back, said it sounded great and engaged us in conversation for a few minutes. I think he actually thanked us for coming to Eugene!

I could probably stop with the story right there now that I think about it 35 years later!

The rest of the story goes as the previous night. Tickets were so hard to find, our counterfeit friends had set up shop big time and were making them look VERY accurate.WE were able to obtain tickets for a couple of us but some of us still resorted to the stub in scam. Which only seemed to work until just before the show started. Once the show started, they must have figured out the scam as they started using a marker to signal a used ticket. This rendered the stub in scam useless but made more determination to make more tickets at Kinkos for night three. I will say in my up til then 3 years being a Deadhead I had never witnessed such a thing. I can't, however, say it was the last time I witnessed such scheming behavior; I observed all sorts of sneaking in scams in the 1990's being a lot vendor.

As for the show and recording I can offer an opinion that this was a nice tight show fitting into the venues curfew and the recording seems to be the most up front of the three nights. The Candyman, Brother Esau sequence is one to pay attention to. I really liked the second set. The song selection would be considered "classic dead" by 1990's standards but in 1983 Touch of Grey and Throwing Stones were relatively new and getting quite the workout in the rotation. The finale of Touch of Grey fades into Samson and Delilah as we were reminded that it was a Sunday and the whole place was singing "If I Had My Way I'd Tear This Old Building Down"! Wonder how that made the architects of the brand new performance space feel. The rest of the set is strong, I like the Wharf Rat with Jerry doing nice vocals and sweet solo runs with the crowd so quiet in this fine acoustic space. A rousing Sugar Mags and Brokedown to send us into the Saturday night with a tight curfew making for a somewhat short runtime.

- - - — sbe’s at end of sets

    length     expanded size    cdr  WAVE problems  fmt   ratio  filename
     8:28.64       89761772 B   ---   --   ---xx   flac  0.6325  gd1983-08-30beyerm201-16s1t01.flac
     6:28.03       68450300 B   ---   --   ---xx   flac  0.6031  gd1983-08-30beyerm201-16s1t02.flac
     5:12.17       55076828 B   ---   --   ---xx   flac  0.6224  gd1983-08-30beyerm201-16s1t03.flac
     3:27.46       36623036 B   ---   --   ---xx   flac  0.6264  gd1983-08-30beyerm201-16s1t04.flac
     8:57.58       94863260 B   ---   --   ---xx   flac  0.6249  gd1983-08-30beyerm201-16s1t05.flac
     8:32.38       90406220 B   ---   --   ---xx   flac  0.6261  gd1983-08-30beyerm201-16s1t06.flac
    11:57.59      126617612 B   ---   --   ---xx   flac  0.6606  gd1983-08-30beyerm201-16s1t07.flac
     8:27.50       89553348 B   -b-   --   ---xx   flac  0.6545  gd1983-08-30beyerm201-16s1t08.flac
     6:10.67       65425628 B   ---   --   ---xx   flac  0.6610  gd1983-08-30beyerm201-16s2t01.flac
     7:48.00       82555244 B   ---   --   ---xx   flac  0.6558  gd1983-08-30beyerm201-16s2t02.flac
    16:02.14      169729772 B   ---   --   ---xx   flac  0.6208  gd1983-08-30beyerm201-16s2t03.flac
     8:56.30       94621004 B   ---   --   ---xx   flac  0.5843  gd1983-08-30beyerm201-16s2t04.flac
    10:18.71      109182236 B   ---   --   ---xx   flac  0.5291  gd1983-08-30beyerm201-16s2t05.flac
     7:56.38       84055820 B   ---   --   ---xx   flac  0.6255  gd1983-08-30beyerm201-16s2t06.flac
     7:49.18       82773980 B   ---   --   ---xx   flac  0.6127  gd1983-08-30beyerm201-16s2t07.flac
     9:49.14      103932572 B   ---   --   ---xx   flac  0.6012  gd1983-08-30beyerm201-16s2t08.flac
     8:37.44       91302332 B   ---   --   ---xx   flac  0.6462  gd1983-08-30beyerm201-16s2t09.flac
     7:07.60       75464096 B   -b-   --   ---xx   flac  0.6465  gd1983-08-30beyerm201-16s2t10.flac
   152:09.16     1610395060 B                            0.6227  (18 files)




Show Checksums
ffp
gd1983-08-30beyerm201-16s1t01.flac:92d6ce704ba701814ab847da471e31bb
gd1983-08-30beyerm201-16s1t02.flac:f941cc75999c78452f3dd30716fa4b1e
gd1983-08-30beyerm201-16s1t03.flac:0a0103abc5222fad33efbf6aed76d07a
gd1983-08-30beyerm201-16s1t04.flac:f18fbf50ba92acde761d9b50518e6f5c
gd1983-08-30beyerm201-16s1t05.flac:72ee16803d2fce3d34d811928ba0e519
gd1983-08-30beyerm201-16s1t06.flac:9a6d3871c96b7011e78f59b9cac9b919
gd1983-08-30beyerm201-16s1t07.flac:38f200e81e6f237ae89b3a6887eb7787
gd1983-08-30beyerm201-16s1t08.flac:e5f339becd705116d4a486ddec7b1ee0
gd1983-08-30beyerm201-16s2t01.flac:f5e6ffe90c5459c0ab8ee6020027530f
gd1983-08-30beyerm201-16s2t02.flac:cba0f91f93c0cce4b73c07367d22842a
gd1983-08-30beyerm201-16s2t03.flac:008b2a6fd23648d282cab6007cacb353
gd1983-08-30beyerm201-16s2t04.flac:4b063b7f5d778eb6643956b1f20706d8
gd1983-08-30beyerm201-16s2t05.flac:7613e6e317d06c34f6f7d548417edb99
gd1983-08-30beyerm201-16s2t06.flac:6ea138f72dc10de7d92ae1c0fd2cc098
gd1983-08-30beyerm201-16s2t07.flac:7d4ba56cd8dd53d507d842cffe2f8abb
gd1983-08-30beyerm201-16s2t08.flac:641baf627140c67d57b9b9c663cbd2db
gd1983-08-30beyerm201-16s2t09.flac:9bef030e86c55bd39b0817628db0a79a
gd1983-08-30beyerm201-16s2t10.flac:4159cdf51a1d4d86809eeeda206dc188
flac-md5
39817e61772acf7e10b3af8d31178b9f *gd1983-08-30beyerm201-16s1t01.flac
03d4fe67e449a2a9aee62116965f7048 *gd1983-08-30beyerm201-16s1t02.flac
74c04c7d4a2490db6775338f88078f5c *gd1983-08-30beyerm201-16s1t03.flac
25954a0b8fc8ab0497403148cad37d60 *gd1983-08-30beyerm201-16s1t04.flac
13e07e1fa8b4b73b3bdc4b26393482b0 *gd1983-08-30beyerm201-16s1t05.flac
67f11a454d525aa24530188ac5025ce1 *gd1983-08-30beyerm201-16s1t06.flac
7877c5b05f9e05cfb09703b699fc8da8 *gd1983-08-30beyerm201-16s1t07.flac
b01cd6f40e213155ffbc5477f84f378a *gd1983-08-30beyerm201-16s1t08.flac
92acb5dffd512c2b6492fde3da70b03e *gd1983-08-30beyerm201-16s2t01.flac
ed81f84876a3673a02fb95b6fe4d92a0 *gd1983-08-30beyerm201-16s2t02.flac
43d21cb666d01d6ce6f0bf3a4917a6fa *gd1983-08-30beyerm201-16s2t03.flac
b279539e507ae5d0914c667a52deeca1 *gd1983-08-30beyerm201-16s2t04.flac
0b1e5cb82c90ee54e2cdca3ef352eb8d *gd1983-08-30beyerm201-16s2t05.flac
fdc0676f2cf74d439c8205dc354d685a *gd1983-08-30beyerm201-16s2t06.flac
84d2b0a4d0a7a315f0c0720bd104628a *gd1983-08-30beyerm201-16s2t07.flac
5aedb081575a17c10630346130040cde *gd1983-08-30beyerm201-16s2t08.flac
1dc010fa9803dee48a2280dd5ad1a01d *gd1983-08-30beyerm201-16s2t09.flac
9a0e98085071df1982abe2d83cb883ff *gd1983-08-30beyerm201-16s2t10.flac

Comments
Add Comment
Other Sources (comments)
AUD (Senn. 421?s)> MC> DAT>... (2) Keysey intro: MSC>Cass. x... (0) flac16; Source:... (1) flac16; Source: 2... (0) flac24; Source Info:... (0) flac16; Source Info:... (0) flac24/48 Source:... (0)
Date User Comment