Browse Collections Artists Sources   Search Dates

Add Show    List Management    Help


Grateful Dead 08/30/83
Silva Hall, Hult Center, Eugene, OR
Comments Add Comment    Source Collectors    Add to Collection    Add to Want List    History
Source # 142997 Other Sources
Entered by Matt Vernon
Checksums ffp , flac-md5
Disc Counts 0 / 0
Media Size
Date Circulated
Date Added

08/24/2018
Source Summary flac24/48 Source: MAC: Beyer M201's X-Y 7'up > Sony TCD5M no dolby Denon DXM 90 Metal x 2 Location: ~70 feet from stage, DFC Transfer: Nakamichi CR-5A (24/96) > Tascam DR680|SD > i7Windows7 Audacity > cdwav editor > TLH flac level 8 Mastered: Executive Crew Kyle Holbrook Chris Kidwell Tom Pinney Transferred: Kyle Holbrook 
  Archive
Source Information - Download Text | Download Zip
Grateful Dead
Date 1983-08-30
Silva Hall at the Hult Center
Eugene OR

d1t01 - Feel Like A Stranger  /
d1t02 - Candyman  /
d1t03 - My Brother Esau   /
d1t04 - Dire Wolf   /
d1t05 - Little Red Rooster  /
d1t06 - Tennessee Jed      //
d1t07 - Lazy Lightnin' > Supplication >
d1t08 - Deal

d2t01 - Touch Of Grey >
d2t02 - Samson And Delilah
d2t03 - Terrapin Station >
d2t04 - Drums >
d2t05 - Space >     //
d2t06 - Throwing Stones >
d2t07 - Not Fade Away >
d2t08 - Wharf Rat >
d2t09 - Sugar Magnolia
d2t10 - Encore Brokedown Palace

/  Tape paused between songs
// Tape Flip


Source:   MAC: Beyer M201's X-Y 7'up > Sony TCD5M no dolby
          Denon DXM 90 Metal x 2
Location: ~70 feet from stage, DFC
Transfer: Nakamichi CR-5A (24/96) > Tascam DR680|SD > i7Windows7
          Audacity > cdwav editor > TLH flac level 8
          This is 24 bit copy
Mastered: Executive Crew Kyle Holbrook Chris Kidwell Tom Pinney
Transferred: Kyle Holbrook
==================================================================================================================
The tour story:
We met Ken Kesey on the street across from the restaurant we ate breakfast at in Eugene. I would not have know it was him by face, but one of us shouted "Hey Ken" and then as he walked toward us said in a lower voice, "That's Ken Kesey". We were standing in front of Chris' Saab with the D5 on the hood, headphones plugged in and letting some new friends we made in the restaurant listen to the night one recording. So, Ken Kesey walks up, says "Hey fellas", points to the deck and asks me, "Is that Last night?"; I say yes, he asks to listen. We handed him the headphones (He IS/was tall) he took a quick listen, handed the phones back, said it sounded great and engaged us in conversation for a few minutes. I think he actually thanked us for coming to Eugene!

I could probably stop with the story right there now that I think about it 35 years later!

The rest of the story goes as the previous night. Tickets were so hard to find, our counterfeit friends had set up shop big time and were making them look VERY accurate.WE were able to obtain tickets for a couple of us but some of us still resorted to the stub in scam. Which only seemed to work until just before the show started. Once the show started, they must have figured out the scam as they started using a marker to signal a used ticket. This rendered the stub in scam useless but made more determination to make more tickets at Kinkos for night three. I will say in my up until then 3 years being a Deadhead I had never witnessed such a thing. I can't, however, say it was the last time I witnessed such scheming behavior; I observed all sorts of sneaking in scams in the 1990's being a lot vendor.

As for the show and recording I can offer an opinion that this was a nice tight show fitting into the venues curfew and the recording seems to be the most up front of the three nights. The Candyman, Brother Esau sequence is one to pay attention to. I really liked the second set. The song selection would be considered "classic dead" by 1990's standards but in 1983 Touch of Grey and Throwing Stones were relatively new and getting quite the workout in the rotation. The finale of Touch of Grey fades into Samson and Delilah as we were reminded that it was a Sunday and the whole place was singing "If I Had My Way I'd Tear This Old Building Down"! Wonder how that made the architects of the brand new performance space feel. The rest of the set is strong, I like the Wharf Rat with Jerry doing nice vocals and sweet solo runs with the crowd so quiet in this fine acoustic space. A rousing Sugar Mags and Brokedown to send us into the Saturday night with a tight curfew making for a somewhat short runtime.

- - - - -

    length     expanded size    cdr  WAVE problems  fmt   ratio  filename
     8:28.853     146549804 B   cxx   --   ---xx   flac  0.7512  gd1983-08-30beyerm201-24s1t01.flac
     6:28.040     111755564 B   cxx   --   ---xx   flac  0.7333  gd1983-08-30beyerm201-24s1t02.flac
     5:12.227      89921324 B   cxx   --   ---xx   flac  0.7448  gd1983-08-30beyerm201-24s1t03.flac
     3:27.613      59792684 B   cxx   --   ---xx   flac  0.7474  gd1983-08-30beyerm201-24s1t04.flac
     8:57.773     154878764 B   cxx   --   ---xx   flac  0.7469  gd1983-08-30beyerm201-24s1t05.flac
     8:32.507     147601964 B   cxx   --   ---xx   flac  0.7477  gd1983-08-30beyerm201-24s1t06.flac
    11:57.787     206722604 B   cxx   --   ---xx   flac  0.7691  gd1983-08-30beyerm201-24s1t07.flac
     8:27.672     146209520 B   cxx   --   ---xx   flac  0.7655  gd1983-08-30beyerm201-24s1t08.flac
     6:10.893     106817324 B   cxx   --   ---xx   flac  0.7685  gd1983-08-30beyerm201-24s2t01.flac
     7:48.000     134784044 B   cxx   --   ---xx   flac  0.7655  gd1983-08-30beyerm201-24s2t02.flac
    16:02.187     277109804 B   cxx   --   ---xx   flac  0.7436  gd1983-08-30beyerm201-24s2t03.flac
     8:56.400     154483244 B   cxx   --   ---xx   flac  0.7205  gd1983-08-30beyerm201-24s2t04.flac
    10:18.947     178256684 B   cxx   --   ---xx   flac  0.6868  gd1983-08-30beyerm201-24s2t05.flac
     7:56.507     137233964 B   cxx   --   ---xx   flac  0.7466  gd1983-08-30beyerm201-24s2t06.flac
     7:49.240     135141164 B   cxx   --   ---xx   flac  0.7385  gd1983-08-30beyerm201-24s2t07.flac
     9:49.187     169685804 B   cxx   --   ---xx   flac  0.7314  gd1983-08-30beyerm201-24s2t08.flac
     8:37.587     149065004 B   cxx   --   ---xx   flac  0.7596  gd1983-08-30beyerm201-24s2t09.flac
     7:07.801     123206660 B   cxx   --   ---xx   flac  0.7651  gd1983-08-30beyerm201-24s2t10.flac
   152:09.219    2629215924 B                            0.7453  (18 files)




Show Checksums
ffp
gd1983-08-30beyerm201-24s1t01.flac:6266d260bdd957655fb4afcaa7d602a5
gd1983-08-30beyerm201-24s1t02.flac:6a55c11f38464e2bc95925cbbc273e25
gd1983-08-30beyerm201-24s1t03.flac:33e6a7bb41631ea144e22d1fe50cd205
gd1983-08-30beyerm201-24s1t04.flac:99e4343ab8aa93fbca0f9a8f4e7c8dd2
gd1983-08-30beyerm201-24s1t05.flac:7bf95e7e2c74e79a926f568ab9f4aa29
gd1983-08-30beyerm201-24s1t06.flac:d09759eea7f9c4d1fc6c99e0c820806d
gd1983-08-30beyerm201-24s1t07.flac:e34bc35f7e0b2fd6208f1403c2479ade
gd1983-08-30beyerm201-24s1t08.flac:350b1fa5ee9d59a5c7db9f7b84435d5c
gd1983-08-30beyerm201-24s2t01.flac:3f20bd6a8ecf094e3b9c591f3994e91b
gd1983-08-30beyerm201-24s2t02.flac:b8eba3d21dafed5b5c03c535c45f2d3b
gd1983-08-30beyerm201-24s2t03.flac:015a2a77c9e7e6c0f6e0e04809f6dd19
gd1983-08-30beyerm201-24s2t04.flac:3b17df1bf62586a4baf83defdec6d5e7
gd1983-08-30beyerm201-24s2t05.flac:1d50ea1782c60320b044268d101dd4d4
gd1983-08-30beyerm201-24s2t06.flac:d040093c45a9720fdc6f62a8c88b4c22
gd1983-08-30beyerm201-24s2t07.flac:072c84229538e453b92b7dd4789dc5ad
gd1983-08-30beyerm201-24s2t08.flac:26d22f5bfc4da6f94baa40772c5601db
gd1983-08-30beyerm201-24s2t09.flac:db6bd903895417dd318dd96c674fa9c8
gd1983-08-30beyerm201-24s2t10.flac:d90f031caf8a562b71df064307cae6be
flac-md5
1ce416e9e77f5b427244a5eaea0e86a5 *gd1983-08-30beyerm201-24s1t01.flac
f7fe48892baa6fef7f1b4abff1a38bf6 *gd1983-08-30beyerm201-24s1t02.flac
3a80918d54c1bce9b0d5736ca577d6f4 *gd1983-08-30beyerm201-24s1t03.flac
2b30668e1fe0eab2339f66d5daebfdb0 *gd1983-08-30beyerm201-24s1t04.flac
11a65248c16f3b3d523b53472eb6cde3 *gd1983-08-30beyerm201-24s1t05.flac
2cafb8b1dc923103077ef79ee18730d6 *gd1983-08-30beyerm201-24s1t06.flac
67f15ec53186d4b912200e197bb78fef *gd1983-08-30beyerm201-24s1t07.flac
e7c4642e797221b254c0b2580f7022c6 *gd1983-08-30beyerm201-24s1t08.flac
23a12f08bef9049562af77681d4240d0 *gd1983-08-30beyerm201-24s2t01.flac
40ab0492805638a2de119f5544226e13 *gd1983-08-30beyerm201-24s2t02.flac
fc3ba7d77b8ca9295276397866231dc5 *gd1983-08-30beyerm201-24s2t03.flac
aa0c99ca9a7ad24e23352175f7517ff6 *gd1983-08-30beyerm201-24s2t04.flac
1409dc3d885cc005396cde8640acfd64 *gd1983-08-30beyerm201-24s2t05.flac
d40bf82346a736d3eb7e914b03f3d14a *gd1983-08-30beyerm201-24s2t06.flac
70592fd74be2fa777e0fe36894c3eec7 *gd1983-08-30beyerm201-24s2t07.flac
4085aaffb8b95dbe5ace698f883ef91f *gd1983-08-30beyerm201-24s2t08.flac
91b26891fd0248652039ec693a400f50 *gd1983-08-30beyerm201-24s2t09.flac
84bc219a9dcea75a77b74553dc51e34f *gd1983-08-30beyerm201-24s2t10.flac

Comments
Add Comment
Other Sources (comments)
AUD (Senn. 421?s)> MC> DAT>... (2) Keysey intro: MSC>Cass. x... (0) flac16; Source:... (1) flac16; Source: 2... (0) flac24; Source Info:... (0) flac16; Source Info:... (0) flac16/44.1kh ... (0)
Date User Comment