Browse Collections Artists Sources   Search Dates

Add Show    List Management    Help


Grateful Dead 09/02/83
Boise State University Pavillion, Boise, ID
Comments Add Comment    Source Collectors    Add to Collection    Add to Want List    History
Source # 142998 Other Sources
Entered by Matt Vernon
Checksums ffp , flac-md5
Disc Counts 0 / 0
Media Size
Date Circulated
Date Added

08/24/2018
Source Summary flac16/44.1 Master: AUD MC Beyer M201's X-Y 7'up > Sony TCD5M no dolby Nakamichi ZX-C90 x 2 Location: 40 feet from stage, DFC Transfer: Nakamichi CR-5A (24/96) > Tascam DR680|SD > i7Windows7 Audacity > cdwav editor > TLH flac level 8 This is 16 bit copy Mastered: Executive Crew Kyle Holbrook Chris Kidwell Tom Pinney Transferred: Kyle Holbrook 
  Archive
Source Information - Download Text | Download Zip
Grateful Dead
Date 1983-09-02
Boise State University Pavilion
Boise ID

d1t01 - Wang Dang Doodle->
d1t02 - Jack Straw
d1t03 - They Love Each Other     /
d1t04 - Mama Tried->
d1t05 - Big River
d1t06 - Brown Eyed Women        //
d1t07 - Minglewood Blues        /
d1t08 - Big Railroad Blues      /
d1t09 - Looks Like Rain->
d1t10 - Deal

d2t01 - Help On The Way-> Slipknot!-> Franklin's Tower
d2t02 - Estimated Prophet->
d2t03 - Eyes Of The World-> //  Drumspace  #
d2t04 - Space ->
d2t05 - Throwing Stones->
d2t06 - Goin' Down The Road Feelin' Bad->
d2t07 - Black Peter->           ///
d2t08 - Sugar Magnolia                       **
d2t09 - encore It's All Over Now Baby Blue

/   tape paused between songs
//  tape flip in middle of verses
/// tape swap from 2 back to 1 side B
#   missed some drums
**   Missing on Holbrook master; came from Kidwells's master

Master: AUD MC Beyer M201's X-Y 7'up > Sony TCD5M no dolby
        Nakamichi ZX-C90 x 2
Location: 40 feet from stage, DFC
Transfer: Nakamichi CR-5A (24/96) > Tascam DR680|SD > i7Windows7
          Audacity > cdwav editor > TLH flac level 8
          This is 16 bit copy
Mastered: Executive Crew Kyle Holbrook Chris Kidwell Tom Pinney
Transferred: Kyle Holbrook
===================================================================================================================
The tour story:
We had one day to get from Eugene OR to Boise ID. We had driven through Wyoming on the way out to San Francisco so had not done the route through Idaho. The two states share a border and it seemed to us to be closer than the drive ended up being. None of us had ever been to Idaho and the thought was the Dead were playing in some laid back country town. It turned out the University of Idaho is there, was a pretty bustling town and the show was in the pavilion operated by the university. The place was nice, sort of new at the time but small, like the arena at UWV. On the drive into town was the famous "Boise Welcomes the Grateful Dead" banner across the road into town. I assume that is what Phil was referring to in the opening of the show when he stepped up to the mic and said: "Citizens of Boise-Submit!" The band was in top form after their Hult run and it seemed they were happy to be a bit less constrained by curfew times playing a 10 song first set and a whopper second set including the by now every third show of 1983 Help>Slip>Franklin's throw-down. The second set including encore goes 1 hour 45 minutes; even then we noticed how they seemed to be having a blast without the tight curfew.

The band was relaxed, there wasn't a huge Deadhead contingent in the audience so there were less "expectations of the band at this show. I recall there were tickets available at the local box office and all of us wound up with good seats, including Chris, Tom, and I who were about 12 rows back Dead center with the mic stand and three D5's. We did get the usual questions and some sideways looks, but by the time Tom had given stickers to their girlfriends and the first set was over, there were zero complaints about the mic stand and all our GD clutter. The Wang Dang Doodle > Jack Straw opener set the tone for the evening with Jerry's vocals and Phil's bass bathing us with Dead yumminess. The rest of set 1 was classic Dead  with just enough "cowboy" influence for the Boise vibe. The Help > Slip > Franklin's came out in its' every third show slot for this tour and was well played given a few flubs heading into Franklin's. The Estimated > Eyes is slow and deliberate with the tunes out of space played in a very tight manner. The night closed with a pretty Baby Blue sending us off into the evening toward the University and some late food. We did stay there that evening but got ready to head south for Salt Lake City the next morning. I think one of us had worked at or been skiing at Park Cities so we were anxious to make it to the resort town.

- - - - - sbe's at end of sets

    length     expanded size    cdr  WAVE problems  fmt   ratio  filename
     6:37.08       70049660 B   ---   --   ---xx   flac  0.6390  gd1983-09-02beyerm201-16s1t01.flac
     5:52.40       62186924 B   ---   --   ---xx   flac  0.6675  gd1983-09-02beyerm201-16s1t02.flac
     7:59.51       84615596 B   ---   --   ---xx   flac  0.6618  gd1983-09-02beyerm201-16s1t03.flac
     2:42.18       28619180 B   ---   --   ---xx   flac  0.6785  gd1983-09-02beyerm201-16s1t04.flac
     6:15.29       66218252 B   ---   --   ---xx   flac  0.6853  gd1983-09-02beyerm201-16s1t05.flac
     5:29.09       58056812 B   ---   --   ---xx   flac  0.6806  gd1983-09-02beyerm201-16s1t06.flac
     8:02.10       85048364 B   ---   --   ---xx   flac  0.7007  gd1983-09-02beyerm201-16s1t07.flac
     7:16.73       77082140 B   ---   --   ---xx   flac  0.7174  gd1983-09-02beyerm201-16s1t08.flac
    10:51.40      114930524 B   ---   --   ---xx   flac  0.6543  gd1983-09-02beyerm201-16s1t09.flac
    10:05.56      106854228 B   -b-   --   ---xx   flac  0.7107  gd1983-09-02beyerm201-16s1t10.flac
    26:16.13      278037020 B   ---   --   ---xx   flac  0.6809  gd1983-09-02beyerm201-16s2t01.flac
    12:52.63      136329020 B   ---   --   ---xx   flac  0.6725  gd1983-09-02beyerm201-16s2t02.flac
    15:47.36      167135516 B   ---   --   ---xx   flac  0.6871  gd1983-09-02beyerm201-16s2t03.flac
     9:47.50      103664444 B   ---   --   ---xx   flac  0.5761  gd1983-09-02beyerm201-16s2t04.flac
     7:50.74       83082092 B   ---   --   ---xx   flac  0.6958  gd1983-09-02beyerm201-16s2t05.flac
     7:43.25       81732044 B   ---   --   ---xx   flac  0.7155  gd1983-09-02beyerm201-16s2t06.flac
     8:08.04       86092652 B   ---   --   ---xx   flac  0.6633  gd1983-09-02beyerm201-16s2t07.flac
     8:26.04       89267852 B   ---   --   ---xx   flac  0.6548  gd1983-09-02beyerm201-16s2t08.flac
     7:27.02       78854776 B   -b-   --   ---xx   flac  0.6869  gd1983-09-02beyerm201-16s2t09.flac
   175:32.05     1857857096 B                            0.6751  (19 files)

Show Checksums
ffp
gd1983-09-02beyerm201-16s1t01.flac:cc1759d112ea5128ba90cacf264903e0
gd1983-09-02beyerm201-16s1t02.flac:ee5b7a0f4136fdc8828ab84417e218d6
gd1983-09-02beyerm201-16s1t03.flac:6d5d1580307426312ac7d6480f5402be
gd1983-09-02beyerm201-16s1t04.flac:9c5ac178c9d509178d13b1e2c2a5b7bf
gd1983-09-02beyerm201-16s1t05.flac:9928699f28a63e0612542b2821f0fa77
gd1983-09-02beyerm201-16s1t06.flac:c8fc6b98270c06064be70427093e7ab8
gd1983-09-02beyerm201-16s1t07.flac:6d13df389570350dcc1cdbcb124522e8
gd1983-09-02beyerm201-16s1t08.flac:a24164ec3e2c76f6e41e331089db1c21
gd1983-09-02beyerm201-16s1t09.flac:6d8ec54938698a941539977d354fa06d
gd1983-09-02beyerm201-16s1t10.flac:4337925e8c738789f1073dae50a99f34
gd1983-09-02beyerm201-16s2t01.flac:960380a9903193406c86831b96f9779f
gd1983-09-02beyerm201-16s2t02.flac:6816d6941e43f93049f9f83a507b318b
gd1983-09-02beyerm201-16s2t03.flac:3f5cad5021679e5b27fe7ff4b72ac697
gd1983-09-02beyerm201-16s2t04.flac:a2017d410989c3d29ce9d0aaa2440c2a
gd1983-09-02beyerm201-16s2t05.flac:0aea6c12348ba6fbe088ddc93bd2dd51
gd1983-09-02beyerm201-16s2t06.flac:aba884cad5062bd0f1db258f8d31c1f2
gd1983-09-02beyerm201-16s2t07.flac:5595c4e80a49b65686d1a64252be3394
gd1983-09-02beyerm201-16s2t08.flac:484f33eaa54eac900e5d670156a0e9e1
gd1983-09-02beyerm201-16s2t09.flac:2f509161a4cad9c5e7a4125757c886bb
flac-md5
24bcad2095eaa38d2fb75cd148e8d17d *gd1983-09-02beyerm201-16s1t01.flac
b5f535f0614268750c20e6a81a838dee *gd1983-09-02beyerm201-16s1t02.flac
aab6389ea4d0c723cfa3d3296682f853 *gd1983-09-02beyerm201-16s1t03.flac
80e7b7130b2efd4016d54a8116165bc5 *gd1983-09-02beyerm201-16s1t04.flac
479eff62c619ab7fb6dc475bc786c3da *gd1983-09-02beyerm201-16s1t05.flac
62f628a4418b2d0f2121776f773e8b94 *gd1983-09-02beyerm201-16s1t06.flac
7d4fb1ff39cbc70cc277e11a75574839 *gd1983-09-02beyerm201-16s1t07.flac
4c86eb54f79d11e78c5f72287187b3c4 *gd1983-09-02beyerm201-16s1t08.flac
d168379f8fc66ffec215e9a4c80c495d *gd1983-09-02beyerm201-16s1t09.flac
2b6d6276fd0f0c2e37be016e74f99903 *gd1983-09-02beyerm201-16s1t10.flac
f92fa18f9e22622311a1a7b00ef8ce49 *gd1983-09-02beyerm201-16s2t01.flac
711934ea4a7b76441d5f696f011f5cec *gd1983-09-02beyerm201-16s2t02.flac
8725d49713d96b6860c75558b6a1ef65 *gd1983-09-02beyerm201-16s2t03.flac
eb3beb59413066edbc5b99e915d89f24 *gd1983-09-02beyerm201-16s2t04.flac
b4f58d47c02e197be97e29941882c7bf *gd1983-09-02beyerm201-16s2t05.flac
caa2361996f44e6b0e0dc9debf157ca2 *gd1983-09-02beyerm201-16s2t06.flac
c77ad40c1d49476cabd9a9ea5ea6352e *gd1983-09-02beyerm201-16s2t07.flac
11a787dfb06c9ed14e5ead3e1259a49a *gd1983-09-02beyerm201-16s2t08.flac
9bd2a2a3280945007f1bf425669f9e6d *gd1983-09-02beyerm201-16s2t09.flac

Comments
Add Comment
Other Sources (comments)
FOB AUD PCM(dbx)> dbx... (2) SBD> cassette master>... (3) Source: FOB AUD PCM (DBX)... (0) 10th Row Center 2 BeyerM160... (0) SBD> cassette... (2) flac16; Matrix by... (0) flac16, FOB MAC 2... (0) flac24/48 Master:... (0)
Date User Comment