Browse Collections Artists Sources   Search Dates

Add Show    List Management    Help


Grateful Dead 09/02/83
Boise State University Pavillion, Boise, ID
Comments Add Comment    Source Collectors    Add to Collection    Add to Want List    History
Source # 142999 Other Sources
Entered by Matt Vernon
Checksums ffp , flac-md5
Disc Counts 0 / 0
Media Size
Date Circulated
Date Added

08/24/2018
Source Summary flac24/48 Master: AUD MC Beyer M201's X-Y 7'up > Sony TCD5M no dolby Nakamichi ZX-C90 x 2 Location: 40 feet from stage, DFC Transfer: Nakamichi CR-5A (24/96) > Tascam DR680|SD > i7Windows7 Audacity > cdwav editor > TLH flac level 8 Mastered: Executive Crew Kyle Holbrook Chris Kidwell Tom Pinney Transferred: Kyle Holbrook 
  Archive
Source Information - Download Text | Download Zip
Grateful Dead
Date 1983-09-02
Boise State University Pavilion
Boise ID

d1t01 - Wang Dang Doodle->
d1t02 - Jack Straw
d1t03 - They Love Each Other     /
d1t04 - Mama Tried->
d1t05 - Big River
d1t06 - Brown Eyed Women        //
d1t07 - Minglewood Blues        /
d1t08 - Big Railroad Blues      /
d1t09 - Looks Like Rain->
d1t10 - Deal

d2t01 - Help On The Way-> Slipknot!-> Franklin's Tower
d2t02 - Estimated Prophet->
d2t03 - Eyes Of The World-> //  Drumspace  #
d2t04 - Space ->
d2t05 - Throwing Stones->
d2t06 - Goin' Down The Road Feelin' Bad->
d2t07 - Black Peter->           ///
d2t08 - Sugar Magnolia                       **
d2t09 - encore It's All Over Now Baby Blue

/   tape paused between songs
//  tape flip in middle of verses
/// tape swap from 2 back to 1 side B
#   missed some drums
**   Missing on Holbrook master; came from Kidwells's master

Master: AUD MC Beyer M201's X-Y 7'up > Sony TCD5M no dolby
        Nakamichi ZX-C90 x 2
Location: 40 feet from stage, DFC
Transfer: Nakamichi CR-5A (24/96) > Tascam DR680|SD > i7Windows7
          Audacity > cdwav editor > TLH flac level 8
          This is 24 bit copy
Mastered: Executive Crew Kyle Holbrook Chris Kidwell Tom Pinney
Transferred: Kyle Holbrook
===================================================================================================================
The tour story:
We had one day to get from Eugene OR to Boise ID. We had driven through Wyoming on the way out to San Francisco so had not done the route through Idaho. The two states share a border and it seemed to us to be closer than the drive ended up being. None of us had ever been to Idaho and the thought was the Dead were playing in some laid back country town. It turned out the University of Idaho is there, was a pretty bustling town and the show was in the pavilion operated by the university. The place was nice, sort of new at the time but small, like the arena at UWV. On the drive into town was the famous "Boise Welcomes the Grateful Dead" banner across the road into town. I assume that is what Phil was referring to in the opening of the show when he stepped up to the mic and said: "Citizens of Boise-Submit!" The band was in top form after their Hult run and it seemed they were happy to be a bit less constrained by curfew times playing a 10 song first set and a whopper second set including the by now every third show of 1983 Help>Slip>Franklin's throw-down. The second set including encore goes 1 hour 45 minutes; even then we noticed how they seemed to be having a blast without the tight curfew.

The band was relaxed, there wasn't a huge Deadhead contingent in the audience so there were less "expectations of the band at this show. I recall there were tickets available at the local box office and all of us wound up with good seats, including Chris, Tom, and I who were about 12 rows back Dead center with the mic stand and three D5's. We did get the usual questions and some sideways looks, but by the time Tom had given stickers to their girlfriends and the first set was over, there were zero complaints about the mic stand and all our GD clutter. The Wang Dang Doodle > Jack Straw opener set the tone for the evening with Jerry's vocals and Phil's bass bathing us with Dead yumminess. The rest of set 1 was classic Dead  with just enough "cowboy" influence for the Boise vibe. The Help > Slip > Franklin's came out in its' every third show slot for this tour and was well played given a few flubs heading into Franklin's. The Estimated > Eyes is slow and deliberate with the tunes out of space played in a very tight manner. The night closed with a pretty Baby Blue sending us off into the evening toward the University and some late food. We did stay there that evening but got ready to head south for Salt Lake City the next morning. I think one of us had worked at or been skiing at Park Cities so we were anxious to make it to the resort town.



- - - -
    length     expanded size    cdr  WAVE problems  fmt   ratio  filename
     6:37.107     114366764 B   cxx   --   ---xx   flac  0.7564  gd1983-09-02beyerm201-24s1t01.flac
     5:52.533     101529644 B   cxx   --   ---xx   flac  0.7741  gd1983-09-02beyerm201-24s1t02.flac
     7:59.680     138147884 B   cxx   --   ---xx   flac  0.7708  gd1983-09-02beyerm201-24s1t03.flac
     2:42.240      46725164 B   cxx   --   ---xx   flac  0.7810  gd1983-09-02beyerm201-24s1t04.flac
     6:15.387     108111404 B   cxx   --   ---xx   flac  0.7852  gd1983-09-02beyerm201-24s1t05.flac
     5:29.120      94786604 B   cxx   --   ---xx   flac  0.7823  gd1983-09-02beyerm201-24s1t06.flac
     8:02.133     138854444 B   cxx   --   ---xx   flac  0.7946  gd1983-09-02beyerm201-24s1t07.flac
     7:16.973     125848364 B   cxx   --   ---xx   flac  0.8049  gd1983-09-02beyerm201-24s1t08.flac
    10:51.533     187641644 B   cxx   --   ---xx   flac  0.7661  gd1983-09-02beyerm201-24s1t09.flac
    10:05.749     174455852 B   cxx   --   ---xx   flac  0.8009  gd1983-09-02beyerm201-24s1t10.flac
    26:16.173     453937964 B   cxx   --   ---xx   flac  0.7823  gd1983-09-02beyerm201-24s2t01.flac
    12:52.840     222577964 B   cxx   --   ---xx   flac  0.7771  gd1983-09-02beyerm201-24s2t02.flac
    15:47.480     272874284 B   cxx   --   ---xx   flac  0.7861  gd1983-09-02beyerm201-24s2t03.flac
     9:47.667     169248044 B   cxx   --   ---xx   flac  0.7181  gd1983-09-02beyerm201-24s2t04.flac
     7:50.987     135644204 B   cxx   --   ---xx   flac  0.7914  gd1983-09-02beyerm201-24s2t05.flac
     7:43.333     133440044 B   cxx   --   ---xx   flac  0.8035  gd1983-09-02beyerm201-24s2t06.flac
     8:08.053     140559404 B   cxx   --   ---xx   flac  0.7714  gd1983-09-02beyerm201-24s2t07.flac
     8:26.053     145743404 B   cxx   --   ---xx   flac  0.7627  gd1983-09-02beyerm201-24s2t08.flac
     7:27.022     128742464 B   cxx   --   ---xx   flac  0.7861  gd1983-09-02beyerm201-24s2t09.flac
   175:32.065    3033235544 B                            0.7786  (19 files)






Show Checksums
ffp
gd1983-09-02beyerm201-24s1t01.flac:0ed4f9807d7c1cc50163627483beb4b8
gd1983-09-02beyerm201-24s1t02.flac:4f2cbb6cb8a267f9e3f59cbdf907942f
gd1983-09-02beyerm201-24s1t03.flac:e9a8b3b54664f36b8c7d714b6a7febc1
gd1983-09-02beyerm201-24s1t04.flac:37b8bba8c12876065c2c748fa7cdba34
gd1983-09-02beyerm201-24s1t05.flac:6be2709371e5707f67769a187ee2cd58
gd1983-09-02beyerm201-24s1t06.flac:646bcb2aaf12af9fff868bd667f6915a
gd1983-09-02beyerm201-24s1t07.flac:d10426536ceb1a446624d6b8b66c74d3
gd1983-09-02beyerm201-24s1t08.flac:58cddc67014cb18f44305d9cd72524ba
gd1983-09-02beyerm201-24s1t09.flac:7d02630672ec87fc4e25d011a3984638
gd1983-09-02beyerm201-24s1t10.flac:af3ec124cc83d3167f6c78ac35818ef2
gd1983-09-02beyerm201-24s2t01.flac:f8843b618e7791ca9a1657b4909b4e84
gd1983-09-02beyerm201-24s2t02.flac:9d3cd0e59e5ad5d2b1b3d6efc377e6bf
gd1983-09-02beyerm201-24s2t03.flac:0a04f655b8f34052606a0f4516af794a
gd1983-09-02beyerm201-24s2t04.flac:f0c3d194a1bdbd87a886e5c9f28f75a6
gd1983-09-02beyerm201-24s2t05.flac:7e3923b16bb13b0f9c731441c777145f
gd1983-09-02beyerm201-24s2t06.flac:69d57b9c38fd2a8a0dd6a29b99903d9a
gd1983-09-02beyerm201-24s2t07.flac:a5f2eb5c98d48e288e51b093cbe136b3
gd1983-09-02beyerm201-24s2t08.flac:ba0a8e9cb8ba1ea2cdfedf1b1a277929
gd1983-09-02beyerm201-24s2t09.flac:e6d48ce9eceddc30cca182de89837d5f
flac-md5
4ca98e4a813326db6138aaab00c83331 *gd1983-09-02beyerm201-24s1t01.flac
06aa173e50bd07978f6b75c15a44b95a *gd1983-09-02beyerm201-24s1t02.flac
8b5321fdd1494514beaa862c2bf05216 *gd1983-09-02beyerm201-24s1t03.flac
99b7883f50c669c6bba329db95c41522 *gd1983-09-02beyerm201-24s1t04.flac
6bbfd64c2b9ec283bc40fe7643cdbd7d *gd1983-09-02beyerm201-24s1t05.flac
1d634fbc2072cdd289a7c33fd104f3e8 *gd1983-09-02beyerm201-24s1t06.flac
915df888ae43dbb7ddf4199680e05cb4 *gd1983-09-02beyerm201-24s1t07.flac
cd3b1925b951a8e137de411fa9c9ed2a *gd1983-09-02beyerm201-24s1t08.flac
b95e5075c858beb2abf85e03b11397b6 *gd1983-09-02beyerm201-24s1t09.flac
eafdd1d9dcd0f1ec09ee8ab86f3ca40d *gd1983-09-02beyerm201-24s1t10.flac
2d446038b2d584f38e802956933b7eed *gd1983-09-02beyerm201-24s2t01.flac
732cf335fb2b1f60f8dc9286d465c852 *gd1983-09-02beyerm201-24s2t02.flac
2145a3d89716a71f3f68d28488207265 *gd1983-09-02beyerm201-24s2t03.flac
5d9f292e57af03f85a9e2edbefc0c13e *gd1983-09-02beyerm201-24s2t04.flac
527e1e5bd72d55828524e2cc5159028c *gd1983-09-02beyerm201-24s2t05.flac
8b471aadaa6541f86742fb78ee208a40 *gd1983-09-02beyerm201-24s2t06.flac
e088cef4ab3c99dc27a651ea889bab0f *gd1983-09-02beyerm201-24s2t07.flac
1bb0dfffac33089c2094de653b143e5d *gd1983-09-02beyerm201-24s2t08.flac
e45a8cae50860df56b3a739b87285f9e *gd1983-09-02beyerm201-24s2t09.flac

Comments
Add Comment
Other Sources (comments)
FOB AUD PCM(dbx)> dbx... (2) SBD> cassette master>... (3) Source: FOB AUD PCM (DBX)... (0) 10th Row Center 2 BeyerM160... (0) SBD> cassette... (2) flac16; Matrix by... (0) flac16, FOB MAC 2... (0) flac16/44.1 ... (0)
Date User Comment