Browse Collections Artists Sources   Search Dates

Add Show    List Management    Help


Grateful Dead 09/03/80
Springfield Civic Center, Springfield, MA
Comments Add Comment    Source Collectors    Add to Collection    Add to Want List    History
Source # 143030 Other Sources
Entered by Matt Vernon
Checksums ffp , flac-md5
Disc Counts 0 / 0
Media Size
Date Circulated
Date Added
08/27/2018
08/27/2018
Source Summary flac24; Source Info: Primary: George Sterry's Master Audience Cassettes; Unknown mics > Sony TC-158SD > 1st generation cassette (TDK D90); Secondary: George Sterry's Master Audience Cassette; Unknown mics > Sony TC-158SD (Maxell UDXLII C90); Transfer Info: Primary: 1st generation cassettes(Nakamichi CR-7A)> Tascam DA-3000 (DSF 1-bit/5.6 MHz)> KORG AudioGate 4 (.wav 24-bit/96k)> Adobe Audition 3.01 (24-bit/96k) > TLH flac2496; Secondary: Cassette Master (Nakamichi CR-7A)> Tascam DA-3000 (DSF 1-bit/5.6 MHz)> KORG AudioGate 4 (.wav 24-bit/96k)> Adobe Audition 3.01 (24-bit/96k) > TLH flac2496 
  Archive
Source Information - Download Text | Download Zip
Grateful Dead
Civic Center Arena
Springfield, MA
Wednesday  September 3rd, 1980

Source Info:
Primary: George Sterry's Master Audience Cassettes; Unknown mics > Sony TC-158SD > 1st generation cassette (TDK D90)
Secondary: George Sterry's Master Audience Cassette; Unknown mics > Sony TC-158SD (Maxell UDXLII C90)

Transfer Info:
Primary: 1st generation cassettes(Nakamichi CR-7A)> Tascam DA-3000 (DSF 1-bit/5.6 MHz)> KORG AudioGate 4 (.wav 24-bit/96k)> Adobe Audition 3.01 (24-bit/96k) > TLH flac2496
Secondary: Cassette Master (Nakamichi CR-7A)> Tascam DA-3000 (DSF 1-bit/5.6 MHz)> KORG AudioGate 4 (.wav 24-bit/96k)> Adobe Audition 3.01 (24-bit/96k) > TLH flac2496

Notes:
- Thanks to George Sterry for the 1st generation and master cassette recording (1st gen cassettes supply entire 1st set through "Drums" of the 2nd set, master cassette supplies "Space" through end of show
- Thanks to David Beckwith for liberating the tapes from eBay
- Thanks to Charlie Miller for the transfer and coordinating this effort
- Thanks to Jim Wise and Sean Cribbs for the shnid12576 Sony ECM270 source which supplies "Mississippi Half-Step Uptown Toodeloo", a 0:13 patch in "Drums", as well as some crowd and the noodle into "Brokedown Palace" (0:13 total)
- Thanks to Bob Morris for the shnid106618 Nakamichi 300 source which supplies a 0:04 patch in "Mississippi Half-Step Uptown Toodeloo" to repair the drop-out in the Wise/Cribbs Sony ECM270 source
- Pre-Drums Jam with Brent, Mickey & Billy
- Pitch corrected

Mastered by Scott Clugston
August 2018

Set One:
s1t01 - Crowd
s1t02 - Mississippi Half-Step Uptown Toodeloo >
s1t03 - Franklin's Tower >
s1t04 - Mama Tried >
s1t05 - Mexicali Blues
s1t06 - Althea >
s1t07 - Little Red Rooster
s1t08 - Candyman
s1t09 - Easy To Love You
s1t10 - Let It Grow >
s1t11 - Deal

Set Two:
s2t01 - Crowd
s2t02 - Feel Like A Stranger
s2t03 - High Time
s2t04 - Lost Sailor >
s2t05 - Saint Of Circumstance >
s2t06 - Drums >
s2t07 - Space >
s2t08 - He's Gone >
s2t09 - Truckin' >
s2t10 - Black Peter >
s2t11 - Around & Around >
s2t12 - Johnny B. Goode
s2t13 - Encore Break
s2t14 - Brokedown Palace


    length     expanded size    cdr  WAVE problems  fmt   ratio  filename
     0:58.107      33469484 B   cxx   --   ---xx   flac  0.6021  gd80-09-03 s1t01 Crowd.flac
     8:06.493     280220204 B   cxx   --   ---xx   flac  0.6289  gd80-09-03 s1t02 Mississippi Half-Step Uptown Toodeloo.flac
     9:01.920     312145964 B   cxx   --   ---xx   flac  0.7391  gd80-09-03 s1t03 Franklin's Tower.flac
     2:24.720      83358764 B   cxx   --   ---xx   flac  0.7265  gd80-09-03 s1t04 Mama Tried.flac
     5:39.293     195433004 B   cxx   --   ---xx   flac  0.7100  gd80-09-03 s1t05 Mexicali Blues.flac
     7:49.120     270213164 B   cxx   --   ---xx   flac  0.7028  gd80-09-03 s1t06 Althea.flac
     7:37.960     263785004 B   cxx   --   ---xx   flac  0.7015  gd80-09-03 s1t07 Little Red Rooster.flac
     8:20.907     288522284 B   cxx   --   ---xx   flac  0.6997  gd80-09-03 s1t08 Candyman.flac
     3:49.053     131934764 B   cxx   --   ---xx   flac  0.7004  gd80-09-03 s1t09 Easy To Love You.flac
    10:33.413     364846124 B   cxx   --   ---xx   flac  0.7030  gd80-09-03 s1t10 Let It Grow.flac
     4:19.580     149518010 B   cxx   --   ---xx   flac  0.7075  gd80-09-03 s1t11 Deal.flac
     1:50.560      63682604 B   cxx   --   ---xx   flac  0.6763  gd80-09-03 s2t01 Crowd.flac
    11:54.800     411724844 B   cxx   --   ---xx   flac  0.6930  gd80-09-03 s2t02 Feel Like A Stranger.flac
     8:03.933     278745644 B   cxx   --   ---xx   flac  0.6898  gd80-09-03 s2t03 High Time.flac
     6:34.973     227504684 B   cxx   --   ---xx   flac  0.6874  gd80-09-03 s2t04 Lost Sailor.flac
    10:51.053     375006764 B   cxx   --   ---xx   flac  0.6865  gd80-09-03 s2t05 Saint Of Circumstance.flac
    10:53.453     376389164 B   cxx   --   ---xx   flac  0.6774  gd80-09-03 s2t06 Drums.flac
     1:56.893      67330604 B   cxx   --   ---xx   flac  0.6928  gd80-09-03 s2t07 Space.flac
    10:14.040     353687084 B   cxx   --   ---xx   flac  0.7005  gd80-09-03 s2t08 He's Gone.flac
     7:20.680     253831724 B   cxx   --   ---xx   flac  0.7161  gd80-09-03 s2t09 Truckin'.flac
     8:41.707     300503084 B   cxx   --   ---xx   flac  0.7081  gd80-09-03 s2t10 Black Peter.flac
     3:51.080     133102124 B   cxx   --   ---xx   flac  0.7121  gd80-09-03 s2t11 Around & Around.flac
     4:22.413     151150124 B   cxx   --   ---xx   flac  0.7141  gd80-09-03 s2t12 Johnny B. Goode.flac
     0:43.400      24998444 B   cxx   --   ---xx   flac  0.6784  gd80-09-03 s2t13 Encore Break.flac
     5:30.277     190239548 B   cxx   --   ---xx   flac  0.6778  gd80-09-03 s2t14 Brokedown Palace.flac
   161:29.830    5581343210 B                            0.6961  (25 files)


Show Checksums
ffp
gd80-09-03 s1t01 Crowd.flac:f5ed11710004faf20b1e216ada0e2811
gd80-09-03 s1t02 Mississippi Half-Step Uptown Toodeloo.flac:bb12c5cf5e03610a775fd0c7a37161dc
gd80-09-03 s1t03 Franklin's Tower.flac:be8d165fec0f2a366afcd819ccb7f07a
gd80-09-03 s1t04 Mama Tried.flac:678f368e8e76ff1ff762ac6eab34f3bb
gd80-09-03 s1t05 Mexicali Blues.flac:e60f5a11a09b9034c74d99eca2264d27
gd80-09-03 s1t06 Althea.flac:afb84507ea523fcd3f12509dc2c7bf63
gd80-09-03 s1t07 Little Red Rooster.flac:4626ed1b2fe2c5cf7660fd43948c7c65
gd80-09-03 s1t08 Candyman.flac:8aa4f2cdc91e7d6c2e79bdecf2c50206
gd80-09-03 s1t09 Easy To Love You.flac:1d34d8eb55af74f7d09ab04c7ad712b4
gd80-09-03 s1t10 Let It Grow.flac:1854a39e131d9ea239aaa4f59ffca1b3
gd80-09-03 s1t11 Deal.flac:88e743cd3478ee5a64f52042027636b0
gd80-09-03 s2t01 Crowd.flac:7f136d384e3573f9f3cc4cfadcc6914b
gd80-09-03 s2t02 Feel Like A Stranger.flac:2b62632449a0bc77be2bb9fddf7f714f
gd80-09-03 s2t03 High Time.flac:539e8d3047666d36b4d6952b59e10d60
gd80-09-03 s2t04 Lost Sailor.flac:dc70f4f4fea98e7e531c09f48c0037f3
gd80-09-03 s2t05 Saint Of Circumstance.flac:2398c414de894cfdda3802b8afacbae8
gd80-09-03 s2t06 Drums.flac:28d76f4df722d47ad33bf25e440c0af5
gd80-09-03 s2t07 Space.flac:8555e32a7a49f958d46b1cc051f5f80d
gd80-09-03 s2t08 He's Gone.flac:b7f0aa74994911918279ff6e79e48e38
gd80-09-03 s2t09 Truckin'.flac:bb0d2fbc0fca36c5ae7aabd96b93d55a
gd80-09-03 s2t10 Black Peter.flac:a84850b744c7c2032a0a6e0866a89183
gd80-09-03 s2t11 Around & Around.flac:2b1a6d8092853b4734bb0fca34804e33
gd80-09-03 s2t12 Johnny B. Goode.flac:558959e5d80052b8c03ff6acfac81a1b
gd80-09-03 s2t13 Encore Break.flac:83bb1ccc261b04d8ea7b4e2be936d75b
gd80-09-03 s2t14 Brokedown Palace.flac:023565264b850df30754a77189e5d167
flac-md5
56a88d644ac290a77925625ad28bf9af *gd80-09-03 s1t01 Crowd.flac
1bfa2e0c04f82c8a06c9f7a669ff6b79 *gd80-09-03 s1t02 Mississippi Half-Step Uptown Toodeloo.flac
75b3fdadd01a006fc6477bacc8bd2871 *gd80-09-03 s1t03 Franklin's Tower.flac
3f43f7c19ecffbb0b3e6613bd5d53cf8 *gd80-09-03 s1t04 Mama Tried.flac
e23caf946dff962f9e91428e26a0b6ea *gd80-09-03 s1t05 Mexicali Blues.flac
e0d8820484fde945d87f72166867a1a0 *gd80-09-03 s1t06 Althea.flac
9e05ecc2331701568e54d2a94dfe6d67 *gd80-09-03 s1t07 Little Red Rooster.flac
a6ce875fd0f104fe06f5163f15dce1e8 *gd80-09-03 s1t08 Candyman.flac
d03d4bc5d2893ba7060618fae47ac567 *gd80-09-03 s1t09 Easy To Love You.flac
b9705ccadcca5a48d728db4aae98132b *gd80-09-03 s1t10 Let It Grow.flac
f679fd4345a70fa3ccb8dc9f8f571a36 *gd80-09-03 s1t11 Deal.flac
c7ddc65ae5f10bfa58573fc8c93ba0f5 *gd80-09-03 s2t01 Crowd.flac
d016206fcbaddf1c3b05ee3f416ebd84 *gd80-09-03 s2t02 Feel Like A Stranger.flac
4bfe420d26d8f4066316e8d91c1cb6ef *gd80-09-03 s2t03 High Time.flac
aa69b50e5ee1be38cb0031fd2bb37eca *gd80-09-03 s2t04 Lost Sailor.flac
9b023cdb69651a734890b8c8a959e050 *gd80-09-03 s2t05 Saint Of Circumstance.flac
3b2ff3bb7845f8a0f867b9d255494e62 *gd80-09-03 s2t06 Drums.flac
912609a416838ee7438806e793ef2fc7 *gd80-09-03 s2t07 Space.flac
1a1e068c8cd77c1cafa96f91bdcd5427 *gd80-09-03 s2t08 He's Gone.flac
e5ff242a7544b5976257c2871856c688 *gd80-09-03 s2t09 Truckin'.flac
7e1d069a3c53848932a564bb50c31df7 *gd80-09-03 s2t10 Black Peter.flac
f6be0030c06d0afe0a5d5a3b8230ad69 *gd80-09-03 s2t11 Around & Around.flac
189248dd296416bad37e2b4957962294 *gd80-09-03 s2t12 Johnny B. Goode.flac
3834e4dcc9aa2739d01296a56d338f43 *gd80-09-03 s2t13 Encore Break.flac
1eb2ab9c9704c40b7687f1eecdfd3022 *gd80-09-03 s2t14 Brokedown Palace.flac

Comments
Add Comment
Other Sources (comments)
Fixed reseed; FOB by Jim... (6) MAC > ? > CD > EAC > SHNv3;... (0) flac16; (FOB)... (0) flac24;FOB AUD: 2x... (1) flac16:FOB AUD: 2x... (1) flac24; (FOB)... (0) flac24; Recording by... (0) flac16/48kHz; Source... (0)
Date User Comment