Browse Collections Artists Sources   Search Dates

Add Show    List Management    Help


Grateful Dead 09/03/80
Springfield Civic Center, Springfield, MA
Comments Add Comment    Source Collectors    Add to Collection    Add to Want List    History
Source # 143031 Other Sources
Entered by Matt Vernon
Checksums ffp , flac-md5
Disc Counts 0 / 0
Media Size
Date Circulated
Date Added
08/27/2018
08/27/2018
Source Summary flac16/48kHz; Source Info: Primary: George Sterry's Master Audience Cassettes; Unknown mics > Sony TC-158SD > 1st generation cassette (TDK D90); Secondary: George Sterry's Master Audience Cassette; Unknown mics > Sony TC-158SD (Maxell UDXLII C90); Transfer Info: Primary: 1st generation cassettes(Nakamichi CR-7A)> Tascam DA-3000 (DSF 1-bit/5.6 MHz)> KORG AudioGate 4 (.wav 24-bit/96k)> Adobe Audition 3.01 (24-bit/96k) > TLH flac2496; Secondary: Cassette Master (Nakamichi CR-7A)> Tascam DA-3000 (DSF 1-bit/5.6 MHz)> KORG AudioGate 4 (.wav 24-bit/96k)> Adobe Audition 3.01 (24-bit/96k) > TLH flac2496; 24-bit > 16-bit via dBpoweramp 
  Archive
Source Information - Download Text | Download Zip
Grateful Dead
Civic Center Arena
Springfield, MA
Wednesday  September 3rd, 1980

This is a 16/48 fileset. 24-bit > 16-bit via dBpoweramp

Source Info:
Primary: George Sterry's Master Audience Cassettes; Unknown mics > Sony TC-158SD > 1st generation cassette (TDK D90)
Secondary: George Sterry's Master Audience Cassette; Unknown mics > Sony TC-158SD (Maxell UDXLII C90)

Transfer Info:
Primary: 1st generation cassettes(Nakamichi CR-7A)> Tascam DA-3000 (DSF 1-bit/5.6 MHz)> KORG AudioGate 4 (.wav 24-bit/96k)> Adobe Audition 3.01 (24-bit/96k) > TLH flac2496
Secondary: Cassette Master (Nakamichi CR-7A)> Tascam DA-3000 (DSF 1-bit/5.6 MHz)> KORG AudioGate 4 (.wav 24-bit/96k)> Adobe Audition 3.01 (24-bit/96k) > TLH flac2496

Notes:
- Thanks to George Sterry for the 1st generation and master cassette recording (1st gen cassettes supply entire 1st set through "Drums" of the 2nd set, master cassette supplies "Space" through end of show
- Thanks to David Beckwith for liberating the tapes from eBay
- Thanks to Charlie Miller for the transfer and coordinating this effort
- Thanks to Jim Wise and Sean Cribbs for the shnid12576 Sony ECM270 source which supplies "Mississippi Half-Step Uptown Toodeloo", as well as a 0:13 patch in "Drums"
- Thanks to Bob Morris for the shnid106618 Nakamichi 300 source which supplies a 0:04 patch in "Mississippi Half-Step Uptown Toodeloo" to repair the drop-out in the Wise/Cribbs Sony ECM270 source
- Pre-Drums Jam with Brent, Mickey & Billy
- Pitch corrected

Mastered by Scott Clugston
August 2018

Set One:
s1t01 - Crowd
s1t02 - Mississippi Half-Step Uptown Toodeloo >
s1t03 - Franklin's Tower >
s1t04 - Mama Tried >
s1t05 - Mexicali Blues
s1t06 - Althea >
s1t07 - Little Red Rooster
s1t08 - Candyman
s1t09 - Easy To Love You
s1t10 - Let It Grow >
s1t11 - Deal

Set Two:
s2t01 - Crowd
s2t02 - Feel Like A Stranger
s2t03 - High Time
s2t04 - Lost Sailor >
s2t05 - Saint Of Circumstance >
s2t06 - Drums >
s2t07 - Space >
s2t08 - He's Gone >
s2t09 - Truckin' >
s2t10 - Black Peter >
s2t11 - Around & Around >
s2t12 - Johnny B. Goode
s2t13 - Encore Break
s2t14 - Brokedown Palace


    length     expanded size    cdr  WAVE problems  fmt   ratio  filename
     0:58.107      11156524 B   cxx   --   ---xx   flac  0.6322  gd80-09-03 s1t01 Crowd.flac
     8:06.493      93406764 B   cxx   --   ---xx   flac  0.6551  gd80-09-03 s1t02 Mississippi Half-Step Uptown Toodeloo.flac
     9:01.920     104048684 B   cxx   --   ---xx   flac  0.7143  gd80-09-03 s1t03 Franklin's Tower.flac
     2:24.720      27786284 B   cxx   --   ---xx   flac  0.6841  gd80-09-03 s1t04 Mama Tried.flac
     5:39.293      65144364 B   cxx   --   ---xx   flac  0.6638  gd80-09-03 s1t05 Mexicali Blues.flac
     7:49.120      90071084 B   cxx   --   ---xx   flac  0.6380  gd80-09-03 s1t06 Althea.flac
     7:37.960      87928364 B   cxx   --   ---xx   flac  0.6376  gd80-09-03 s1t07 Little Red Rooster.flac
     8:20.907      96174124 B   cxx   --   ---xx   flac  0.6333  gd80-09-03 s1t08 Candyman.flac
     3:49.053      43978284 B   cxx   --   ---xx   flac  0.6458  gd80-09-03 s1t09 Easy To Love You.flac
    10:33.413     121615404 B   cxx   --   ---xx   flac  0.6508  gd80-09-03 s1t10 Let It Grow.flac
     4:19.580      49839364 B   cxx   --   ---xx   flac  0.6634  gd80-09-03 s1t11 Deal.flac
     1:50.560      21227564 B   cxx   --   ---xx   flac  0.6007  gd80-09-03 s2t01 Crowd.flac
    11:54.800     137241644 B   cxx   --   ---xx   flac  0.6404  gd80-09-03 s2t02 Feel Like A Stranger.flac
     8:03.933      92915244 B   cxx   --   ---xx   flac  0.6314  gd80-09-03 s2t03 High Time.flac
     6:34.973      75834924 B   cxx   --   ---xx   flac  0.6252  gd80-09-03 s2t04 Lost Sailor.flac
    10:51.053     125002284 B   cxx   --   ---xx   flac  0.6222  gd80-09-03 s2t05 Saint Of Circumstance.flac
    10:53.453     125463084 B   cxx   --   ---xx   flac  0.5880  gd80-09-03 s2t06 Drums.flac
     1:56.893      22443564 B   cxx   --   ---xx   flac  0.6085  gd80-09-03 s2t07 Space.flac
    10:14.040     117895724 B   cxx   --   ---xx   flac  0.6318  gd80-09-03 s2t08 He's Gone.flac
     7:20.680      84610604 B   cxx   --   ---xx   flac  0.6637  gd80-09-03 s2t09 Truckin'.flac
     8:41.707     100167724 B   cxx   --   ---xx   flac  0.6397  gd80-09-03 s2t10 Black Peter.flac
     3:51.080      44367404 B   cxx   --   ---xx   flac  0.6515  gd80-09-03 s2t11 Around & Around.flac
     4:22.413      50383404 B   cxx   --   ---xx   flac  0.6571  gd80-09-03 s2t12 Johnny B. Goode.flac
     0:43.400       8332844 B   cxx   --   ---xx   flac  0.6181  gd80-09-03 s2t13 Encore Break.flac
     5:30.277      63413212 B   cxx   --   ---xx   flac  0.6497  gd80-09-03 s2t14 Brokedown Palace.flac
   161:29.830    1860448468 B                            0.6422  (25 files)



Show Checksums
ffp
gd80-09-03 s1t01 Crowd.flac:240ed043ef052f5ae194797a2af61be1
gd80-09-03 s1t02 Mississippi Half-Step Uptown Toodeloo.flac:f2b4152806f9ebf4fdd49e21d94a6f01
gd80-09-03 s1t03 Franklin's Tower.flac:e47951704b078c5f8f84b57235e9c61b
gd80-09-03 s1t04 Mama Tried.flac:42cdc248c13e0a9d48e85ee389a4a489
gd80-09-03 s1t05 Mexicali Blues.flac:452bbf95c329635bfd60325bef3ac663
gd80-09-03 s1t06 Althea.flac:a13c0439017b9f6842c2a816260871fa
gd80-09-03 s1t07 Little Red Rooster.flac:4e82a1537872b7e1f3fcaa1a834357e5
gd80-09-03 s1t08 Candyman.flac:07626e700856b4b23412797c0f69cd3a
gd80-09-03 s1t09 Easy To Love You.flac:bb408a87a97d17745f46ffcff612f086
gd80-09-03 s1t10 Let It Grow.flac:6b499f57900e60302e4dcbe1534d49bc
gd80-09-03 s1t11 Deal.flac:fb57608c21ae15eb45dac6e2c76cefe5
gd80-09-03 s2t01 Crowd.flac:1c7c72a32ff88980eccb4ccd5d065fce
gd80-09-03 s2t02 Feel Like A Stranger.flac:939d0b9943ea1f0bd4cf5993880ab8f8
gd80-09-03 s2t03 High Time.flac:36b34df9765c2aa4e807eaa10afc79ac
gd80-09-03 s2t04 Lost Sailor.flac:3ff5f214ed948a0ef59982d4401471ca
gd80-09-03 s2t05 Saint Of Circumstance.flac:07aedd1dcde0c6542e4ed2330c92d88c
gd80-09-03 s2t06 Drums.flac:3ad754d36c3953498eb5aff3ac29a17d
gd80-09-03 s2t07 Space.flac:2bee64aec68c513a522490028f571bb9
gd80-09-03 s2t08 He's Gone.flac:11bbee7c2eeb2cfd7a645268a61ee4f6
gd80-09-03 s2t09 Truckin'.flac:2fa5c4404e87e3fb4b82b1a33facd08e
gd80-09-03 s2t10 Black Peter.flac:943cec86082141a7f7fc9a28b058d1f2
gd80-09-03 s2t11 Around & Around.flac:dd8554f3c8d7a333f82e3874c4eef999
gd80-09-03 s2t12 Johnny B. Goode.flac:ff25ce89d6818e90371e1bdde3cb9199
gd80-09-03 s2t13 Encore Break.flac:5cad36c68b307dbc4c61f58d8f4939e4
gd80-09-03 s2t14 Brokedown Palace.flac:fd3b294b0ff4011373bb5f84bf9ecb7b
flac-md5
8ace5f8bc4f38f08de55caff58d33cb5 *gd80-09-03 s1t01 Crowd.flac
61f4180aa72a0011a8572d1f868f912c *gd80-09-03 s1t02 Mississippi Half-Step Uptown Toodeloo.flac
139d5b974f6afa3f73409986e8cf4085 *gd80-09-03 s1t03 Franklin's Tower.flac
7dbdb6a295547e815bfc0bc5bab0bb48 *gd80-09-03 s1t04 Mama Tried.flac
c70f96439be5b2374ebd8d6a63910688 *gd80-09-03 s1t05 Mexicali Blues.flac
88035df6a02eac7a6d8ecdd5b07f0176 *gd80-09-03 s1t06 Althea.flac
f3b18de298d652aa13de69ca50ccac9d *gd80-09-03 s1t07 Little Red Rooster.flac
bc75ba7ac08bb00aa7a4d12117c39a98 *gd80-09-03 s1t08 Candyman.flac
ef270c5b90abc696c413f1ffa0cc1848 *gd80-09-03 s1t09 Easy To Love You.flac
94a5df81577169b3b10e8d372fd88716 *gd80-09-03 s1t10 Let It Grow.flac
26aadc10812c23a3f4231f3a3ac315cf *gd80-09-03 s1t11 Deal.flac
523c628e5657330e62371e41483798fb *gd80-09-03 s2t01 Crowd.flac
d0bad3defa99de99b4299bddb7bdc7b3 *gd80-09-03 s2t02 Feel Like A Stranger.flac
40bb513a674dca46f17efaf4eda7e8a0 *gd80-09-03 s2t03 High Time.flac
10b7ffea724c01d957488dd0008135a8 *gd80-09-03 s2t04 Lost Sailor.flac
97cbfa219f8a546ad02234279575163d *gd80-09-03 s2t05 Saint Of Circumstance.flac
49722202815a984c71d8ca889755ed93 *gd80-09-03 s2t06 Drums.flac
9edc9581c6c5dc9e382a63e74a91de68 *gd80-09-03 s2t07 Space.flac
792049ed4da048e6da25bf83f88e4d79 *gd80-09-03 s2t08 He's Gone.flac
61eae803dd1893e66cc64f1df54bd855 *gd80-09-03 s2t09 Truckin'.flac
769f5db9ae3e1006c5013f0e952dc349 *gd80-09-03 s2t10 Black Peter.flac
0a9cd0499644c7654a209ed498bf54cf *gd80-09-03 s2t11 Around & Around.flac
886419ca0c17a6996fc2f95368428be3 *gd80-09-03 s2t12 Johnny B. Goode.flac
a83c2562b88d3d1d4a908be5166aaf3a *gd80-09-03 s2t13 Encore Break.flac
e89c86739d0c75ae4d4298f6c8bfdd55 *gd80-09-03 s2t14 Brokedown Palace.flac

Comments
Add Comment
Other Sources (comments)
Fixed reseed; FOB by Jim... (6) MAC > ? > CD > EAC > SHNv3;... (0) flac16; (FOB)... (0) flac24;FOB AUD: 2x... (1) flac16:FOB AUD: 2x... (1) flac24; (FOB)... (0) flac24; Recording by... (0) flac24; Source Info:... (0)
Date User Comment