Browse Collections Artists Sources   Search Dates

Add Show    List Management    Help


Grateful Dead 05/17/81
Onondaga County War Memorial, Syracuse, NY
Comments Add Comment    Source Collectors    Add to Collection    Add to Want List    History
Source # 143035 Other Sources
Entered by Matt Vernon
Checksums ffp , flac-md5
Disc Counts 0 / 0
Media Size
Date Circulated
Date Added
08/27/2018
08/27/2018
Source Summary flac24; Jim Wise's Master Audience Cassettes; Sennheiser 421 mics > Sony TC-D5 (Maxell UDXLII-C90)(located at the soundboard); Transfer Info: Master Cassettes (Nakamichi Dragon)> Tascam DA-3000 (DSF 1-bit/5.6 MHz) > dBpoweramp (24-bit/96 kHz) > Adobe Audition 3.01 (24-bit/96 kHz) > TLH flac2496 
  Archive
Source Information - Download Text | Download Zip
Grateful Dead
Onondaga County War Memorial
Syracuse, NY
Sunday May 17th, 1981

Jim Wise's Master Audience Cassettes; Sennheiser 421 mics > Sony TC-D5 (Maxell UDXLII-C90)(located at the soundboard)

Transfer Info:
Master Cassettes (Nakamichi Dragon)> Tascam DA-3000 (DSF 1-bit/5.6 MHz) > dBpoweramp (24-bit/96 kHz) > Adobe Audition 3.01 (24-bit/96 kHz) > TLH flac2496

Notes:
- Thanks to Jim Wise for recording the show and the fresh transcription of his audience master
- Thanks to Charlie Miller for coordinating this effort
- Thanks to Doug Mow and Alex Ford for the shnid27974 nak300 source which supplies the crowd and first 0:05 of "Alabama Getaway" (0:32 total)
- Thanks to Frank Streeter and the folks responsible for the shnid139961 Sennheiser 421 source which supplies a 0:04 patch in "He's Gone"
- Thanks to Joe B. Jones for his assistance with the pitch correction

Mastered by Scott Clugston
August  25, 2018

Set One:
s1t01 - Crowd
s1t02 - Alabama Getaway >
s1t03 - Promised Land
s1t04 - Peggy O
s1t05 - Mama Tried >
s1t06 - Mexicali Blues
s1t07 - They Love Each Other >
s1t08 - New Minglewood Blues
s1t09 - Candyman >
s1t10 - Looks Like Rain
s1t11 - Big Railroad Blues >
s1t12 - Little Red Rooster
s1t13 - China Cat Sunflower >
s1t14 - I Know You Rider

Set Two:
s2t01 - Crowd
s2t02 - Cold Rain & Snow >
s2t03 - Samson & Delilah
s2t04 - Ship Of Fools
s2t05 - Estimated Prophet >
s2t06 - He's Gone >
s2t07 - The Other One >
s2t08 - Drums >
s2t09 - Space >
s2t10 - Saint Of Circumstance >
s2t11 - Wharf Rat >
s2t12 - Sugar Magnolia
Encore:
s2t13 - (I Can't Get No) Satisfaction


    length     expanded size    cdr  WAVE problems  fmt   ratio  filename
     0:27.160      15644204 B   cxx   --   ---xx   flac  0.5560  gd81-05-17 s1t01 Crowd.flac
     5:22.147     185556524 B   cxx   --   ---xx   flac  0.7417  gd81-05-17 s1t02 Alabama Getaway.flac
     4:22.333     151104044 B   cxx   --   ---xx   flac  0.7460  gd81-05-17 s1t03 Promised Land.flac
     7:18.440     252541484 B   cxx   --   ---xx   flac  0.7377  gd81-05-17 s1t04 Peggy O.flac
     2:34.267      88857644 B   cxx   --   ---xx   flac  0.7479  gd81-05-17 s1t05 Mama Tried.flac
     4:50.013     167047724 B   cxx   --   ---xx   flac  0.7465  gd81-05-17 s1t06 Mexicali Blues.flac
     7:44.840     267747884 B   cxx   --   ---xx   flac  0.7461  gd81-05-17 s1t07 They Love Each Other.flac
     7:59.627     276265004 B   cxx   --   ---xx   flac  0.7503  gd81-05-17 s1t08 New Minglewood Blues.flac
     7:07.133     246028844 B   cxx   --   ---xx   flac  0.7345  gd81-05-17 s1t09 Candyman.flac
     9:03.773     313213484 B   cxx   --   ---xx   flac  0.7374  gd81-05-17 s1t10 Looks Like Rain.flac
     4:23.227     151618604 B   cxx   --   ---xx   flac  0.7493  gd81-05-17 s1t11 Big Railroad Blues.flac
     8:56.693     309135404 B   cxx   --   ---xx   flac  0.7418  gd81-05-17 s1t12 Little Red Rooster.flac
     6:29.067     224102444 B   cxx   --   ---xx   flac  0.7375  gd81-05-17 s1t13 China Cat Sunflower.flac
     5:50.411     201836912 B   cxx   --   ---xx   flac  0.7454  gd81-05-17 s1t14 I Know You Rider.flac
     0:58.307      33584684 B   cxx   --   ---xx   flac  0.7147  gd81-05-17 s2t01 Crowd.flac
     6:23.613     220961324 B   cxx   --   ---xx   flac  0.7438  gd81-05-17 s2t02 Cold Rain & Snow.flac
     7:18.000     252288044 B   cxx   --   ---xx   flac  0.7476  gd81-05-17 s2t03 Samson & Delilah.flac
     9:03.627     313129004 B   cxx   --   ---xx   flac  0.7342  gd81-05-17 s2t04 Ship Of Fools.flac
    12:57.640     447920684 B   cxx   --   ---xx   flac  0.7376  gd81-05-17 s2t05 Estimated Prophet.flac
    11:24.907     394506284 B   cxx   --   ---xx   flac  0.7324  gd81-05-17 s2t06 He's Gone.flac
     4:22.933     151449644 B   cxx   --   ---xx   flac  0.7498  gd81-05-17 s2t07 The Other One.flac
     1:27.613      50465324 B   cxx   --   ---xx   flac  0.7153  gd81-05-17 s2t08 Drums.flac
     5:03.947     175073324 B   cxx   --   ---xx   flac  0.7174  gd81-05-17 s2t09 Space.flac
     6:25.880     222266924 B   cxx   --   ---xx   flac  0.7479  gd81-05-17 s2t10 Saint Of Circumstance.flac
    10:21.853     358187564 B   cxx   --   ---xx   flac  0.7383  gd81-05-17 s2t11 Wharf Rat.flac
     8:34.800     296524844 B   cxx   --   ---xx   flac  0.7518  gd81-05-17 s2t12 Sugar Magnolia.flac
     6:40.335     230593202 B   cxx   --   ---xx   flac  0.7504  gd81-05-17 s2t13 (I Can't Get No) Satisfaction.flac
   173:32.587    5997651054 B                            0.7406  (27 files)


Show Checksums
ffp
gd81-05-17 s1t01 Crowd.flac:969cf4def921c384c025322d1f59b7f8
gd81-05-17 s1t02 Alabama Getaway.flac:7e9b3ae8b027f0119a2cee1307457ae9
gd81-05-17 s1t03 Promised Land.flac:2e718f585f4374872571c244449009cf
gd81-05-17 s1t04 Peggy O.flac:f03a174d641a5e65a7746cd434b9694a
gd81-05-17 s1t05 Mama Tried.flac:bf0d1fa6f76772ab93da8b2dc589622c
gd81-05-17 s1t06 Mexicali Blues.flac:f61e9d499afa9a8bc730bced79dcf092
gd81-05-17 s1t07 They Love Each Other.flac:fab5b09fcc7fdfe0e60412fe125964f8
gd81-05-17 s1t08 New Minglewood Blues.flac:c60f8f9d1e03ccd7c5428a2894ac5a3f
gd81-05-17 s1t09 Candyman.flac:452c2c41eafd259c5c81fa81a41153e2
gd81-05-17 s1t10 Looks Like Rain.flac:373d2e9bc03e7e38cebab1832d2538d6
gd81-05-17 s1t11 Big Railroad Blues.flac:e0f0b4f75176ce01b2408a79c303da37
gd81-05-17 s1t12 Little Red Rooster.flac:33893040a1b466e17b45c1379b8a5dba
gd81-05-17 s1t13 China Cat Sunflower.flac:c72dca28293a2a023a8e6f8e6c517c44
gd81-05-17 s1t14 I Know You Rider.flac:5ed3aa7474e2451cee39c2c9f3599a05
gd81-05-17 s2t01 Crowd.flac:595f4c1f689e3435698a82447e82a08d
gd81-05-17 s2t02 Cold Rain & Snow.flac:f778749e5ec637b1568b19fce3925208
gd81-05-17 s2t03 Samson & Delilah.flac:bcc68dac09dd1326f55dfa009df706a0
gd81-05-17 s2t04 Ship Of Fools.flac:4ed061dc39f7ba1846a5261397d04cf0
gd81-05-17 s2t05 Estimated Prophet.flac:9058c648462e873c3abbc6b2ec8db3b5
gd81-05-17 s2t06 He's Gone.flac:7dd1dcfba9669ebd8be24f257853727b
gd81-05-17 s2t07 The Other One.flac:6e822a4f0c53456beb2198d7ccb29e63
gd81-05-17 s2t08 Drums.flac:56506da459b95f122d12e1e1642d0172
gd81-05-17 s2t09 Space.flac:bc3fc1fee63ed75c871a02b84a53c33d
gd81-05-17 s2t10 Saint Of Circumstance.flac:3cddb0795b4b3c978776ae3b14356fbc
gd81-05-17 s2t11 Wharf Rat.flac:476cc5716f7b6a4635fc36fa7c64a479
gd81-05-17 s2t12 Sugar Magnolia.flac:4716d01daaf2f45302391a2ca95dcd60
gd81-05-17 s2t13 (I Can't Get No) Satisfaction.flac:a4f132fb29325ec7070f303a1035e450
flac-md5
29317b442b8825aa978a2b76f2d5b629 *gd81-05-17 s1t01 Crowd.flac
0f9e43a8cb2a360c1655b547fb57b4a2 *gd81-05-17 s1t02 Alabama Getaway.flac
1a1477741778116faba6e036a1cc1d1c *gd81-05-17 s1t03 Promised Land.flac
cbf8ae190be9e25fd84fabf68e77c736 *gd81-05-17 s1t04 Peggy O.flac
7731470693719dc20c06a0b25cbaca10 *gd81-05-17 s1t05 Mama Tried.flac
a8ac406c65077081ed3e691f7f9a4e5b *gd81-05-17 s1t06 Mexicali Blues.flac
8a4331bb9829546396f50123493b0c77 *gd81-05-17 s1t07 They Love Each Other.flac
fb6db11737a4040f189ae7575a9428f7 *gd81-05-17 s1t08 New Minglewood Blues.flac
1d40a67b857c68206fb325b0262dc571 *gd81-05-17 s1t09 Candyman.flac
c88b58a80928162fb6e24b97a9a5300b *gd81-05-17 s1t10 Looks Like Rain.flac
de92af5d2c0fefa9b79701c3e26fc8f0 *gd81-05-17 s1t11 Big Railroad Blues.flac
4a4714d5034083fffd4946c092070de9 *gd81-05-17 s1t12 Little Red Rooster.flac
7bdfb3814f228240a4c2bff0ffee2078 *gd81-05-17 s1t13 China Cat Sunflower.flac
aed8d7bf11481e8b5d1ce0eba87705eb *gd81-05-17 s1t14 I Know You Rider.flac
0393eb694ef3886215375876cc58fa1b *gd81-05-17 s2t01 Crowd.flac
299407f42a6a932a0cf342c84d67e2ea *gd81-05-17 s2t02 Cold Rain & Snow.flac
c4134c74ffaa5e7d2a4781b68e79e891 *gd81-05-17 s2t03 Samson & Delilah.flac
0a2b4e1b3cc7cc467fc15221c8c446ae *gd81-05-17 s2t04 Ship Of Fools.flac
83d44f5e2e367c5e36a709c32d84fb85 *gd81-05-17 s2t05 Estimated Prophet.flac
7d77c3f31124bedf0eb6d5a2ad2e4d61 *gd81-05-17 s2t06 He's Gone.flac
54d658d0d8d01634cf885220162db524 *gd81-05-17 s2t07 The Other One.flac
fdb6bc639e07d22ab0f714e84730ff89 *gd81-05-17 s2t08 Drums.flac
8d508f1f469a3430b0953d1d95029c35 *gd81-05-17 s2t09 Space.flac
95017cf7b8a70f3927a8b79a9fcdd6a4 *gd81-05-17 s2t10 Saint Of Circumstance.flac
54b9039cb091b7ba60f9b2b86b7e2e56 *gd81-05-17 s2t11 Wharf Rat.flac
dc85c66271cc0c21b42b431c8c6822e4 *gd81-05-17 s2t12 Sugar Magnolia.flac
d4c23460fd5d7e2f14a01ecb88606a25 *gd81-05-17 s2t13 (I Can't Get No) Satisfaction.flac

Comments
Add Comment
Other Sources (comments)
Possible Jim Wise... (3) flac16; Recording by... (0) flac16;set2:... (0) flac16; Source Info:... (0) flac24; Source Info:... (0) flac16/48kHz; Jim... (0)
Date User Comment