Browse Collections Artists Sources   Search Dates

Add Show    List Management    Help


Grateful Dead 05/17/81
Onondaga County War Memorial, Syracuse, NY
Comments Add Comment    Source Collectors    Add to Collection    Add to Want List    History
Source # 143036 Other Sources
Entered by Matt Vernon
Checksums ffp , flac-md5
Disc Counts 0 / 0
Media Size
Date Circulated
Date Added
08/27/2018
08/27/2018
Source Summary flac16/48kHz; Jim Wise's Master Audience Cassettes; Sennheiser 421 mics > Sony TC-D5 (Maxell UDXLII-C90)(located at the soundboard); Transfer Info: Master Cassettes (Nakamichi Dragon)> Tascam DA-3000 (DSF 1-bit/5.6 MHz) > dBpoweramp (24-bit/96 kHz) > Adobe Audition 3.01 (24-bit/96 kHz) > TLH flac2496; 24-bit > 16-bit via dBpoweramp 
  Archive
Source Information - Download Text | Download Zip
Grateful Dead
Onondaga County War Memorial
Syracuse, NY
Sunday May 17th, 1981

This is a 16/48 fileset. 24-bit > 16-bit via dBpoweramp

Jim Wise's Master Audience Cassettes; Sennheiser 421 mics > Sony TC-D5 (Maxell UDXLII-C90)(located at the soundboard)

Transfer Info:
Master Cassettes (Nakamichi Dragon)> Tascam DA-3000 (DSF 1-bit/5.6 MHz) > dBpoweramp (24-bit/96 kHz) > Adobe Audition 3.01 (24-bit/96 kHz) > TLH flac2496

Notes:
- Thanks to Jim Wise for recording the show and the fresh transcription of his audience master
- Thanks to Charlie Miller for coordinating this effort
- Thanks to Doug Mow and Alex Ford for the shnid27974 nak300 source which supplies the crowd and first 0:05 of "Alabama Getaway" (0:32 total)
- Thanks to Frank Streeter and the folks responsible for the shnid139961 Sennheiser 421 source which supplies a 0:04 patch in "He's Gone"
- Thanks to Joe B. Jones for his assistance with the pitch correction

Mastered by Scott Clugston
August  25, 2018

Set One:
s1t01 - Crowd
s1t02 - Alabama Getaway >
s1t03 - Promised Land
s1t04 - Peggy O
s1t05 - Mama Tried >
s1t06 - Mexicali Blues
s1t07 - They Love Each Other
s1t08 - New Minglewood Blues
s1t09 - Candyman >
s1t10 - Looks Like Rain
s1t11 - Big Railroad Blues >
s1t12 - Little Red Rooster
s1t13 - China Cat Sunflower >
s1t14 - I Know You Rider

Set Two:
s2t01 - Crowd
s2t02 - Cold Rain & Snow >
s2t03 - Samson & Delilah
s2t04 - Ship Of Fools
s2t05 - Estimated Prophet >
s2t06 - He's Gone >
s2t07 - The Other One >
s2t08 - Drums >
s2t09 - Space >
s2t10 - Saint Of Circumstance >
s2t11 - Wharf Rat >
s2t12 - Sugar Magnolia
Encore:
s2t13 - (I Can't Get No) Satisfaction


    length     expanded size    cdr  WAVE problems  fmt   ratio  filename
     0:27.160       5214764 B   cxx   --   ---xx   flac  0.4894  gd81-05-17 s1t01 Crowd.flac
     5:22.147      61852204 B   cxx   --   ---xx   flac  0.6698  gd81-05-17 s1t02 Alabama Getaway.flac
     4:22.333      50368044 B   cxx   --   ---xx   flac  0.6776  gd81-05-17 s1t03 Promised Land.flac
     7:18.440      84180524 B   cxx   --   ---xx   flac  0.6366  gd81-05-17 s1t04 Peggy O.flac
     2:34.267      29619244 B   cxx   --   ---xx   flac  0.6681  gd81-05-17 s1t05 Mama Tried.flac
     4:50.013      55682604 B   cxx   --   ---xx   flac  0.6638  gd81-05-17 s1t06 Mexicali Blues.flac
     7:44.840      89249324 B   cxx   --   ---xx   flac  0.6616  gd81-05-17 s1t07 They Love Each Other.flac
     7:59.627      92088364 B   cxx   --   ---xx   flac  0.6757  gd81-05-17 s1t08 New Minglewood Blues.flac
     7:07.133      82009644 B   cxx   --   ---xx   flac  0.6401  gd81-05-17 s1t09 Candyman.flac
     9:03.773     104404524 B   cxx   --   ---xx   flac  0.6498  gd81-05-17 s1t10 Looks Like Rain.flac
     4:23.227      50539564 B   cxx   --   ---xx   flac  0.6854  gd81-05-17 s1t11 Big Railroad Blues.flac
     8:56.693     103045164 B   cxx   --   ---xx   flac  0.6633  gd81-05-17 s1t12 Little Red Rooster.flac
     6:29.067      74700844 B   cxx   --   ---xx   flac  0.6508  gd81-05-17 s1t13 China Cat Sunflower.flac
     5:50.411      67279000 B   cxx   --   ---xx   flac  0.6735  gd81-05-17 s1t14 I Know You Rider.flac
     0:58.307      11194924 B   cxx   --   ---xx   flac  0.5807  gd81-05-17 s2t01 Crowd.flac
     6:23.613      73653804 B   cxx   --   ---xx   flac  0.6641  gd81-05-17 s2t02 Cold Rain & Snow.flac
     7:18.000      84096044 B   cxx   --   ---xx   flac  0.6752  gd81-05-17 s2t03 Samson & Delilah.flac
     9:03.627     104376364 B   cxx   --   ---xx   flac  0.6349  gd81-05-17 s2t04 Ship Of Fools.flac
    12:57.640     149306924 B   cxx   --   ---xx   flac  0.6452  gd81-05-17 s2t05 Estimated Prophet.flac
    11:24.907     131502124 B   cxx   --   ---xx   flac  0.6291  gd81-05-17 s2t06 He's Gone.flac
     4:22.933      50483244 B   cxx   --   ---xx   flac  0.6803  gd81-05-17 s2t07 The Other One.flac
     1:27.613      16821804 B   cxx   --   ---xx   flac  0.5772  gd81-05-17 s2t08 Drums.flac
     5:03.947      58357804 B   cxx   --   ---xx   flac  0.5826  gd81-05-17 s2t09 Space.flac
     6:25.880      74089004 B   cxx   --   ---xx   flac  0.6765  gd81-05-17 s2t10 Saint Of Circumstance.flac
    10:21.853     119395884 B   cxx   --   ---xx   flac  0.6464  gd81-05-17 s2t11 Wharf Rat.flac
     8:34.800      98841644 B   cxx   --   ---xx   flac  0.6883  gd81-05-17 s2t12 Sugar Magnolia.flac
     6:40.335      76864428 B   cxx   --   ---xx   flac  0.6834  gd81-05-17 s2t13 (I Can't Get No) Satisfaction.flac
   173:32.587    1999217808 B                            0.6555  (27 files)


Show Checksums
ffp
gd81-05-17 s1t01 Crowd.flac:e3781a4b909d77bdda80690f30fd8c45
gd81-05-17 s1t02 Alabama Getaway.flac:51a6160a33a96397070588c97bc11b82
gd81-05-17 s1t03 Promised Land.flac:9970948990365b9a8b495301b45be6eb
gd81-05-17 s1t04 Peggy O.flac:5951ddd882adecaaab2898b82fe9c290
gd81-05-17 s1t05 Mama Tried.flac:d2384c25d26341c30b839b18d3bd44dd
gd81-05-17 s1t06 Mexicali Blues.flac:b48763fcaa8cfe502848673770876e20
gd81-05-17 s1t07 They Love Each Other.flac:0891212400f117f4bb63c3cec3583ca4
gd81-05-17 s1t08 New Minglewood Blues.flac:db06a11927e1b40a5e0b49176703e1ed
gd81-05-17 s1t09 Candyman.flac:7c76bef59b7cf9648858b11335382535
gd81-05-17 s1t10 Looks Like Rain.flac:d07b1e0555f570fb1df6895dfb82c562
gd81-05-17 s1t11 Big Railroad Blues.flac:906b833406c95fcf1677c7b897d2c7bf
gd81-05-17 s1t12 Little Red Rooster.flac:cc19f7c3572f0217b1ad19bc2559ff30
gd81-05-17 s1t13 China Cat Sunflower.flac:b5aa18b00555ee8238ebd0d34b2c3448
gd81-05-17 s1t14 I Know You Rider.flac:f299a64ac1a281a2fc339fab288a6d72
gd81-05-17 s2t01 Crowd.flac:7553bb557c21c3ea1ae2d9d7fb652091
gd81-05-17 s2t02 Cold Rain & Snow.flac:2b7dc9ea9b1a97f33cca232e84600fca
gd81-05-17 s2t03 Samson & Delilah.flac:4b5fb1fe81ddeb2934075f1cebefbf49
gd81-05-17 s2t04 Ship Of Fools.flac:09c87c6c42bae6f9aff88af35383371a
gd81-05-17 s2t05 Estimated Prophet.flac:eb0495833087ae52f28ad574de0bb444
gd81-05-17 s2t06 He's Gone.flac:7efe1aef73dabb4032087f19f2bd017a
gd81-05-17 s2t07 The Other One.flac:6eb6b185e5e1859f68d572369d078f8f
gd81-05-17 s2t08 Drums.flac:2dff106035f3ad47acc9060448f15633
gd81-05-17 s2t09 Space.flac:fc0ecb9f1e82d4a54f1c4cc8663f60f5
gd81-05-17 s2t10 Saint Of Circumstance.flac:54e55301e1de03cd4a8e86df3307e213
gd81-05-17 s2t11 Wharf Rat.flac:4938381a5fe8aaf2e2502e1cfdd7ecac
gd81-05-17 s2t12 Sugar Magnolia.flac:5c4820472a9f7c7b0ad0da3a039079e5
gd81-05-17 s2t13 (I Can't Get No) Satisfaction.flac:887d49f9537e6aa61b50dd76db6fc697
flac-md5
0b37546f2b6bd77f1c6e0465922a9ec5 *gd81-05-17 s1t01 Crowd.flac
6491ec18d284c2f522ecce2ff865ac79 *gd81-05-17 s1t02 Alabama Getaway.flac
a57e5636d34761d65b6264f74aa15c2b *gd81-05-17 s1t03 Promised Land.flac
f759485c25bb22fdf8186eb6c69b58db *gd81-05-17 s1t04 Peggy O.flac
8e8036494a8e8a491c97ccf807b0ebf6 *gd81-05-17 s1t05 Mama Tried.flac
546538ffd7f7a832e0aab3df345bccca *gd81-05-17 s1t06 Mexicali Blues.flac
9fc1aaa02a7f8a7ae39132cee2ac529e *gd81-05-17 s1t07 They Love Each Other.flac
b445a5c993a74e4d599ce47d0c36bd58 *gd81-05-17 s1t08 New Minglewood Blues.flac
85db3dab331364d32af2d417c0bf45a8 *gd81-05-17 s1t09 Candyman.flac
f13d6bfdfa843d20a0cdfcbb236ee714 *gd81-05-17 s1t10 Looks Like Rain.flac
300b32f8b4bd1f946e027e7d2f7ca15f *gd81-05-17 s1t11 Big Railroad Blues.flac
2f3def58f047136ae998949a259fdcda *gd81-05-17 s1t12 Little Red Rooster.flac
a0dec6295a53c485cc371d6dcda9a4b0 *gd81-05-17 s1t13 China Cat Sunflower.flac
5bd6bd73ff6c846227c91abcbf058b9d *gd81-05-17 s1t14 I Know You Rider.flac
989dfaa040ef08628c63db1ef2efd29e *gd81-05-17 s2t01 Crowd.flac
3bcd7e6e364af00695daae1019b5e9fb *gd81-05-17 s2t02 Cold Rain & Snow.flac
3b10db0620b70d731f714e343c016552 *gd81-05-17 s2t03 Samson & Delilah.flac
adef6d21869ef43f6fc3381ab6326cac *gd81-05-17 s2t04 Ship Of Fools.flac
9d953eed33ac5d31c47db2b3e56b5ddb *gd81-05-17 s2t05 Estimated Prophet.flac
87982511385eabcca0268fa558df043c *gd81-05-17 s2t06 He's Gone.flac
a7716e32a56592204b06fa717b11d6c2 *gd81-05-17 s2t07 The Other One.flac
74abb129dec96e58bc90d3d24172c81a *gd81-05-17 s2t08 Drums.flac
9c949f3433d81d3ea7cf2d5fa71c03c3 *gd81-05-17 s2t09 Space.flac
6980e1b490a060962c9a5cc37363edb8 *gd81-05-17 s2t10 Saint Of Circumstance.flac
a6a1bf859a12670d054b2f37ba7ac78e *gd81-05-17 s2t11 Wharf Rat.flac
d936d43ed38feedb59336a88be4cec52 *gd81-05-17 s2t12 Sugar Magnolia.flac
9330a0c1dd4f837a23069ca85c60f11c *gd81-05-17 s2t13 (I Can't Get No) Satisfaction.flac

Comments
Add Comment
Other Sources (comments)
Possible Jim Wise... (3) flac16; Recording by... (0) flac16;set2:... (0) flac16; Source Info:... (0) flac24; Source Info:... (0) flac24; Jim Wise's... (0)
Date User Comment