Browse Collections Artists Sources   Search Dates

Add Show    List Management    Help


Grateful Dead 05/05/81
Glens Falls Civic Center, Glens Falls, NY
Comments Add Comment    Source Collectors    Add to Collection    Add to Want List    History
Source # 143043 Other Sources
Entered by Matt Vernon
Checksums ffp , flac-md5
Disc Counts 0 / 0
Media Size Compressed: 4.05 GB (4353150976 bytes)
Date Circulated
Date Added
08/30/2018
08/30/2018
Source Summary flac24; Jim Wise's Master Audience Cassettes; Sennheiser 421 mics > Sony TC-D5 (Maxell UDXLII-C90)(located at the soundboard)Transfer Info: Master Cassettes (Nakamichi Dragon)> Tascam DA-3000 (DSF 1-bit/5.6 MHz) > dBpoweramp (24-bit/96 kHz) > Adobe Audition 3.01 (24-bit/96 kHz) > TLH flac2496 
  Archive
Source Information - Download Text | Download Zip
Grateful Dead
Civic Center
Glens Falls, NY
Tuesday May 5th, 1981

Jim Wise's Master Audience Cassettes; Sennheiser 421 mics > Sony TC-D5 (Maxell UDXLII-C90)(located at the soundboard)

Transfer Info:
Master Cassettes (Nakamichi Dragon)> Tascam DA-3000 (DSF 1-bit/5.6 MHz) > dBpoweramp (24-bit/96 kHz) > Adobe Audition 3.01 (24-bit/96 kHz) > TLH flac2496

Notes:
- Thanks to Jim Wise for recording the show and the fresh transcription of his audience master
- Thanks to Charlie Miller for coordinating this effort
- Thanks to Doug Lamarre and Rob Berger for the shnid135254 Arista mic source which supplies a 0:31 patch in "Drums", as well as a 0:05 patch at the end of "Truckin'"
- Thanks to Joe B. Jones for his assistance with the pitch correction

Mastered by Scott Clugston
August  25, 2018

Set One:
s1t01 - Crowd
s1t02 - Feel Like A Stranger
s1t03 - Peggy O >
s1t04 - El Paso
s1t05 - Ramble On Rose
s1t06 - CC Rider
s1t07 - Brown Eyed Women
s1t08 - Passenger
s1t09 - Althea
s1t10 - The Music Never Stopped >
s1t11 - Don't Ease Me In

Set Two:
s2t01 - Scarlet Begonias >
s2t02 - Fire on the Mountain
s2t03 - Estimated Prophet >
s2t04 - Eyes of the World >
s2t05 - Drums >
s2t06 - Space >
s2t07 - Uncle John's Band >
s2t08 - Truckin' >
        Almost Spanish Jam >
s2t09 - Alabama Getaway >
s2t10 - Johnny B. Goode
Encore
s2t11 - US Blues

    length     expanded size    cdr  WAVE problems  fmt   ratio  filename
     0:57.333      33024044 B   cxx   --   ---xx   flac  0.7178  gd81-05-05 s1t01 Crowd.flac
     8:12.680     283783724 B   cxx   --   ---xx   flac  0.7373  gd81-05-05 s1t02 Feel Like A Stranger.flac
     6:26.040     222359084 B   cxx   --   ---xx   flac  0.7316  gd81-05-05 s1t03 Peggy O.flac
     5:30.267     190233644 B   cxx   --   ---xx   flac  0.7362  gd81-05-05 s1t04 El Paso.flac
     7:09.560     247426604 B   cxx   --   ---xx   flac  0.7395  gd81-05-05 s1t05 Ramble On Rose.flac
     7:38.040     263831084 B   cxx   --   ---xx   flac  0.7373  gd81-05-05 s1t06 CC Rider.flac
     5:28.840     189411884 B   cxx   --   ---xx   flac  0.7435  gd81-05-05 s1t07 Brown Eyed Women.flac
     5:19.293     183913004 B   cxx   --   ---xx   flac  0.7492  gd81-05-05 s1t08 Passenger.flac
     9:57.533     344179244 B   cxx   --   ---xx   flac  0.7357  gd81-05-05 s1t09 Althea.flac
     7:42.333     266304044 B   cxx   --   ---xx   flac  0.7463  gd81-05-05 s1t10 The Music Never Stopped.flac
     3:19.395     114851462 B   cxx   --   ---xx   flac  0.7483  gd81-05-05 s1t11 Don't Ease Me In.flac
    11:55.907     412362284 B   cxx   --   ---xx   flac  0.7436  gd81-05-05 s2t01 Scarlet Begonias.flac
    11:45.253     406225964 B   cxx   --   ---xx   flac  0.7437  gd81-05-05 s2t02 Fire On The Mountain.flac
    11:47.813     407700524 B   cxx   --   ---xx   flac  0.7474  gd81-05-05 s2t03 Estimated Prophet.flac
     9:18.573     321738284 B   cxx   --   ---xx   flac  0.7546  gd81-05-05 s2t04 Eyes Of The World.flac
    12:12.480     421908524 B   cxx   --   ---xx   flac  0.7230  gd81-05-05 s2t05 Drums.flac
     6:15.573     216330284 B   cxx   --   ---xx   flac  0.7087  gd81-05-05 s2t06 Space.flac
    11:45.053     406110764 B   cxx   --   ---xx   flac  0.7513  gd81-05-05 s2t07 Uncle John's Band.flac
    11:58.053     413598764 B   cxx   --   ---xx   flac  0.7496  gd81-05-05 s2t08 Truckin'.flac
     5:06.013     176263724 B   cxx   --   ---xx   flac  0.7578  gd81-05-05 s2t09 Alabama Getaway.flac
     4:39.253     160849964 B   cxx   --   ---xx   flac  0.7558  gd81-05-05 s2t10 Johnny B. Goode.flac
     5:22.332     185663126 B   cxx   --   ---xx   flac  0.7464  gd81-05-05 s2t11 US Blues.flac
   169:47.620    5868070028 B                            0.7418  (22 files)


Show Checksums
ffp
gd81-05-05 s1t01 Crowd.flac:eeed180eabca01251c68d81344a3060c
gd81-05-05 s1t02 Feel Like A Stranger.flac:006ddac9bdacef3588d3f9d76bc68f51
gd81-05-05 s1t03 Peggy O.flac:7507215346bc42a320da75cb2e7cee4a
gd81-05-05 s1t04 El Paso.flac:e0f35c5a54d16faa8df40b08a4e0847b
gd81-05-05 s1t05 Ramble On Rose.flac:ec10d7f2788566292173d75e05184f86
gd81-05-05 s1t06 CC Rider.flac:bafeafc93bf7ef26e8120aac72a59acb
gd81-05-05 s1t07 Brown Eyed Women.flac:4b422b1bbde8cb25cfc422041c6feae4
gd81-05-05 s1t08 Passenger.flac:78a4f4b12d74b6655ee1f32badf7e69b
gd81-05-05 s1t09 Althea.flac:f7a2c4fa2d8e4bfb7d057570b3feff0a
gd81-05-05 s1t10 The Music Never Stopped.flac:ae9963cabcf27e6f2e0d6c71ab40310d
gd81-05-05 s1t11 Don't Ease Me In.flac:4b1f0bd3d9e6add16220b28a652bb487
gd81-05-05 s2t01 Scarlet Begonias.flac:c960d9b2550d89f65b8584cf218676a8
gd81-05-05 s2t02 Fire On The Mountain.flac:5d1fd1e2f30f2e7cdb099cd3e5cae154
gd81-05-05 s2t03 Estimated Prophet.flac:2b806efd89c48df74255ffc64a95a547
gd81-05-05 s2t04 Eyes Of The World.flac:1eb3e247a43f909047be637f5c7c3fdb
gd81-05-05 s2t05 Drums.flac:b70425a342273ca7ea4a9698533b7a92
gd81-05-05 s2t06 Space.flac:d327576badaa72a6c842522def848b2c
gd81-05-05 s2t07 Uncle John's Band.flac:8632cb1b74fdc5c4d903cc914886ecd6
gd81-05-05 s2t08 Truckin'.flac:c196dabd365003bc5e87c862be100563
gd81-05-05 s2t09 Alabama Getaway.flac:07610e3ad25edf5380f753c1ce0c1850
gd81-05-05 s2t10 Johnny B. Goode.flac:75e704c1368fb969ba1bc774ed1cf3ae
gd81-05-05 s2t11 US Blues.flac:3842bdbadd1a1353e82e45e44061f98d
flac-md5
af6acaffe2536b2e7d2b78f9f9562f75 *gd81-05-05 s1t01 Crowd.flac
b9c1956c17a185284e677da16498df23 *gd81-05-05 s1t02 Feel Like A Stranger.flac
c6759c7cfce7e355a9daf8b05754bdc9 *gd81-05-05 s1t03 Peggy O.flac
ed930c0ff7386f0a093d49f7e5f173d3 *gd81-05-05 s1t04 El Paso.flac
69d6a7fd8f6d69c65c0ae37cbf549340 *gd81-05-05 s1t05 Ramble On Rose.flac
480e00d42ece1f52deb60c8df2f3bf28 *gd81-05-05 s1t06 CC Rider.flac
626d8607c5b7087e616c01a94e897344 *gd81-05-05 s1t07 Brown Eyed Women.flac
5c595359e9c9aef4762bb5252f5290bc *gd81-05-05 s1t08 Passenger.flac
b79c74fdb6675d06be61b80cd47e5a8d *gd81-05-05 s1t09 Althea.flac
4906ed05b47304b17736a876316bb49d *gd81-05-05 s1t10 The Music Never Stopped.flac
40cc50600dbe26082d216cf5e33a5679 *gd81-05-05 s1t11 Don't Ease Me In.flac
f44258ddac4e6b7c30485f54cf1cff89 *gd81-05-05 s2t01 Scarlet Begonias.flac
455e742d7cca64b477ef3c34467ccfe4 *gd81-05-05 s2t02 Fire On The Mountain.flac
d5fa361ee7e679c94a31c7da3434d211 *gd81-05-05 s2t03 Estimated Prophet.flac
edbe7eb4180fdd4abf7abd212a7fc8b9 *gd81-05-05 s2t04 Eyes Of The World.flac
a6340dfda67fafc5b74d525473f9b949 *gd81-05-05 s2t05 Drums.flac
2068c35fbbfadfd0a092e8ac7be2a22f *gd81-05-05 s2t06 Space.flac
0df11656e5958a56f1d350dcc4fe0117 *gd81-05-05 s2t07 Uncle John's Band.flac
2ca54b6e6f91431cdb65250916fe8960 *gd81-05-05 s2t08 Truckin'.flac
a68857de8a8c0bdbc2e660340f8e313f *gd81-05-05 s2t09 Alabama Getaway.flac
8e2a7b5ad3ae610f64fa1de01ed51a63 *gd81-05-05 s2t10 Johnny B. Goode.flac
2811d469e95e897d6847863e7a8718d6 *gd81-05-05 s2t11 US Blues.flac

Comments
Add Comment
Other Sources (comments)
Recording by Jim Wise.... (1) flac16; Recording by... (5) flac16; (FOB)... (0) flac16; Set 2... (0) flac24; Cassette... (0) flac24; source: aud... (0) flac16; source: aud... (0) flac16/48kHz; Jim... (0)
Date User Comment