Browse Collections Artists Sources   Search Dates

Add Show    List Management    Help


Grateful Dead 05/05/81
Glens Falls Civic Center, Glens Falls, NY
Comments Add Comment    Source Collectors    Add to Collection    Add to Want List    History
Source # 143044 Other Sources
Entered by Matt Vernon
Checksums ffp , flac-md5
Disc Counts 0 / 0
Media Size Compressed: 1.23 GB (1320775680 bytes)
Date Circulated
Date Added
08/30/2018
08/30/2018
Source Summary flac16/48kHz; Jim Wise's Master Audience Cassettes; Sennheiser 421 mics > Sony TC-D5 (Maxell UDXLII-C90)(located at the soundboard); Transfer Info: Master Cassettes (Nakamichi Dragon)> Tascam DA-3000 (DSF 1-bit/5.6 MHz) > dBpoweramp (24-bit/96 kHz) > Adobe Audition 3.01 (24-bit/96 kHz) > TLH flac2496; 24-bit > 16-bit via dBpoweramp 
  Archive
Source Information - Download Text | Download Zip
Grateful Dead
Civic Center
Glens Falls, NY
Tuesday May 5th, 1981

This is a 16/48 fileset. 24-bit > 16-bit via dBpoweramp

Jim Wise's Master Audience Cassettes; Sennheiser 421 mics > Sony TC-D5 (Maxell UDXLII-C90)(located at the soundboard)

Transfer Info:
Master Cassettes (Nakamichi Dragon)> Tascam DA-3000 (DSF 1-bit/5.6 MHz) > dBpoweramp (24-bit/96 kHz) > Adobe Audition 3.01 (24-bit/96 kHz) > TLH flac2496

Notes:
- Thanks to Jim Wise for recording the show and the fresh transcription of his audience master
- Thanks to Charlie Miller for coordinating this effort
- Thanks to Doug Lamarre and Rob Berger for the shnid135254 Arista mic source which supplies a 0:31 patch in "Drums", as well as a 0:05 patch at the end of "Truckin'"
- Thanks to Joe B. Jones for his assistance with the pitch correction

Mastered by Scott Clugston
August  25, 2018

Set One:
s1t01 - Crowd
s1t02 - Feel Like A Stranger
s1t03 - Peggy O >
s1t04 - El Paso
s1t05 - Ramble On Rose
s1t06 - CC Rider
s1t07 - Brown Eyed Women
s1t08 - Passenger
s1t09 - Althea
s1t10 - The Music Never Stopped >
s1t11 - Don't Ease Me In

Set Two:
s2t01 - Scarlet Begonias >
s2t02 - Fire on the Mountain
s2t03 - Estimated Prophet >
s2t04 - Eyes of the World >
s2t05 - Drums >
s2t06 - Space >
s2t07 - Uncle John's Band >
s2t08 - Truckin' >
        Almost Spanish Jam >
s2t09 - Alabama Getaway >
s2t10 - Johnny B. Goode
Encore
s2t11 - US Blues

    length     expanded size    cdr  WAVE problems  fmt   ratio  filename
     0:57.333      11008044 B   cxx   --   ---xx   flac  0.6137  gd81-05-05 s1t01 Crowd.flac
     8:12.680      94594604 B   cxx   --   ---xx   flac  0.6644  gd81-05-05 s1t02 Feel Like A Stranger.flac
     6:26.040      74119724 B   cxx   --   ---xx   flac  0.6452  gd81-05-05 s1t03 Peggy O.flac
     5:30.267      63411244 B   cxx   --   ---xx   flac  0.6599  gd81-05-05 s1t04 El Paso.flac
     7:09.560      82475564 B   cxx   --   ---xx   flac  0.6695  gd81-05-05 s1t05 Ramble On Rose.flac
     7:38.040      87943724 B   cxx   --   ---xx   flac  0.6635  gd81-05-05 s1t06 CC Rider.flac
     5:28.840      63137324 B   cxx   --   ---xx   flac  0.6817  gd81-05-05 s1t07 Brown Eyed Women.flac
     5:19.293      61304364 B   cxx   --   ---xx   flac  0.6989  gd81-05-05 s1t08 Passenger.flac
     9:57.533     114726444 B   cxx   --   ---xx   flac  0.6578  gd81-05-05 s1t09 Althea.flac
     7:42.333      88768044 B   cxx   --   ---xx   flac  0.6901  gd81-05-05 s1t10 The Music Never Stopped.flac
     3:19.395      38283848 B   cxx   --   ---xx   flac  0.6971  gd81-05-05 s1t11 Don't Ease Me In.flac
    11:55.907     137454124 B   cxx   --   ---xx   flac  0.6875  gd81-05-05 s2t01 Scarlet Begonias.flac
    11:45.253     135408684 B   cxx   --   ---xx   flac  0.6873  gd81-05-05 s2t02 Fire On The Mountain.flac
    11:47.813     135900204 B   cxx   --   ---xx   flac  0.6843  gd81-05-05 s2t03 Estimated Prophet.flac
     9:18.573     107246124 B   cxx   --   ---xx   flac  0.7059  gd81-05-05 s2t04 Eyes Of The World.flac
    12:12.480     140636204 B   cxx   --   ---xx   flac  0.6328  gd81-05-05 s2t05 Drums.flac
     6:15.573      72110124 B   cxx   --   ---xx   flac  0.5813  gd81-05-05 s2t06 Space.flac
    11:45.053     135370284 B   cxx   --   ---xx   flac  0.6948  gd81-05-05 s2t07 Uncle John's Band.flac
    11:58.053     137866284 B   cxx   --   ---xx   flac  0.6912  gd81-05-05 s2t08 Truckin'.flac
     5:06.013      58754604 B   cxx   --   ---xx   flac  0.7144  gd81-05-05 s2t09 Alabama Getaway.flac
     4:39.253      53616684 B   cxx   --   ---xx   flac  0.7087  gd81-05-05 s2t10 Johnny B. Goode.flac
     5:22.332      61887736 B   cxx   --   ---xx   flac  0.6802  gd81-05-05 s2t11 US Blues.flac
   169:47.620    1956023984 B                            0.6752  (22 files)


Show Checksums
ffp
gd81-05-05 s1t01 Crowd.flac:596c5d461c4d429d2e5af766779f4162
gd81-05-05 s1t02 Feel Like A Stranger.flac:448a65f9ca7e082a83696bd97da5ee11
gd81-05-05 s1t03 Peggy O.flac:a64d7c3f8a65734235a9fb35dcecff37
gd81-05-05 s1t04 El Paso.flac:531a45155cc73a6414344f1ce5e10c49
gd81-05-05 s1t05 Ramble On Rose.flac:5ee51cb36a8dff05801cdf9c3faf60fb
gd81-05-05 s1t06 CC Rider.flac:0fde59f5ae5c3cb0ee6f259a047d76be
gd81-05-05 s1t07 Brown Eyed Women.flac:e035e4e35e2e6d92f61099a25df8d823
gd81-05-05 s1t08 Passenger.flac:389ed61bdfce2c4480e6f8b25d28f1d0
gd81-05-05 s1t09 Althea.flac:4c4c85852c57f1f250416a57198f499f
gd81-05-05 s1t10 The Music Never Stopped.flac:03119cc4e53d00f6cfc52a18bffad7c2
gd81-05-05 s1t11 Don't Ease Me In.flac:efd7932b73bc221fb1b1e381ad06c85c
gd81-05-05 s2t01 Scarlet Begonias.flac:e534d944fca829442b8af838fbf799cf
gd81-05-05 s2t02 Fire On The Mountain.flac:c78173b6667561c3e97089ef2f1ef8cf
gd81-05-05 s2t03 Estimated Prophet.flac:44830ea0dc0331ae865b8658ee8b65fc
gd81-05-05 s2t04 Eyes Of The World.flac:2b469303d88eae9f5992346a75a0c34a
gd81-05-05 s2t05 Drums.flac:7b4729d9633f6e7d6e0c078d11daabf3
gd81-05-05 s2t06 Space.flac:a5c7d2a8f842bd10a6e1e337660b38fa
gd81-05-05 s2t07 Uncle John's Band.flac:f505f56498289d0e1d1dc139dd3d4915
gd81-05-05 s2t08 Truckin'.flac:fc99bb4a2a8168ea57baa72b6dea58e1
gd81-05-05 s2t09 Alabama Getaway.flac:6de008b50c55576c962e03c55bdf5ce9
gd81-05-05 s2t10 Johnny B. Goode.flac:87753fc0ba185e3246f0787d5bd81e90
gd81-05-05 s2t11 US Blues.flac:e7c4e8d1288a679b6b8102d293d48c34
flac-md5
1cbcd2cac2cef71d49cf8d2062828a23 *gd81-05-05 s1t01 Crowd.flac
f47f39c250d62db94cf3a0b5b8b5094e *gd81-05-05 s1t02 Feel Like A Stranger.flac
c55994308a79d521edeb3334e422e13e *gd81-05-05 s1t03 Peggy O.flac
6eb130183bdf74ef7abaeb777d15a8b1 *gd81-05-05 s1t04 El Paso.flac
d5c64c4c6315d5b9c863bfe200e34e9f *gd81-05-05 s1t05 Ramble On Rose.flac
d7ac0510e546575a1a2a64f741bfffdc *gd81-05-05 s1t06 CC Rider.flac
08ff08f4481273c1853a3bb833bf8bfc *gd81-05-05 s1t07 Brown Eyed Women.flac
e01a83f12d4e617f1848c1607862fb34 *gd81-05-05 s1t08 Passenger.flac
ab935d76f3c1c8e079e0648bcede3186 *gd81-05-05 s1t09 Althea.flac
242dde02541273a8392ffa176ef531e2 *gd81-05-05 s1t10 The Music Never Stopped.flac
65dcae13e0cc34ad76c7053482b917f5 *gd81-05-05 s1t11 Don't Ease Me In.flac
7ab1840692e5d5ac6a207342833b1281 *gd81-05-05 s2t01 Scarlet Begonias.flac
212a88e37072055d9b186516fc2b746e *gd81-05-05 s2t02 Fire On The Mountain.flac
84b0a427ab718872e3a75e02a7e6fdf9 *gd81-05-05 s2t03 Estimated Prophet.flac
ca7c4bea7e001d7718025ea29b013c92 *gd81-05-05 s2t04 Eyes Of The World.flac
3b0e388f97757be095eecd880bf66c19 *gd81-05-05 s2t05 Drums.flac
2de1bc08ee3d9741795e53be6a7865ff *gd81-05-05 s2t06 Space.flac
31d033faad30cc5e47d1f64f32a4afb0 *gd81-05-05 s2t07 Uncle John's Band.flac
0b8b95d263b408879aaeea273440e6fb *gd81-05-05 s2t08 Truckin'.flac
667b93672d1f77ccbbfe823d634b89fb *gd81-05-05 s2t09 Alabama Getaway.flac
fc67dd21b7f07cefb824503098485a2c *gd81-05-05 s2t10 Johnny B. Goode.flac
bd70c142f6128febfa183554a9eae16b *gd81-05-05 s2t11 US Blues.flac

Comments
Add Comment
Other Sources (comments)
Recording by Jim Wise.... (1) flac16; Recording by... (5) flac16; (FOB)... (0) flac16; Set 2... (0) flac24; Cassette... (0) flac24; source: aud... (0) flac16; source: aud... (0) flac24; Jim Wise's... (0)
Date User Comment