Browse Collections Artists Sources   Search Dates

Add Show    List Management    Help


Grateful Dead 07/04/87
Sullivan Stadium, Foxboro, MA
Comments Add Comment    Source Collectors    Add to Collection    Add to Want List    History
Source # 143048 Other Sources
Entered by Matt Vernon
Checksums ffp , flac-md5
Disc Counts 0 / 0
Media Size Compressed: 1.27 GB (1363148800 bytes)
Uncompressed: 2 GB (2149580800 bytes)
Date Circulated
Date Added
08/30/2018
08/30/2018
Source Summary flac16; Matrix 2 Source Mix - SBD (shnid = 101650) Recording Info: SBD -> Cassette Master -> CD; Transfer Info: CD -> Samplitude Professional v10.02 -> FLAC; All Transfers and Mastering By Charlie Miller + AUD (shnid = 139594) Dan McSheffrey recording: (FOB) AKG 460/CK2 > PCM (Sony PCM-F1) > Dat (44.1k); Charlie Miller Transfer: Dat (Sony PCM-R500) > Sound Devices 744T > wav 16/44; Edited & Mastered in Audacity by Joe Noel: wav 16/44 > flac 16/44; Checksum & tags created in xACT - matrix mixing by Kevin Tobin 
  Archive
Source Information - Download Text | Download Zip
Grateful Dead
July 4, 1987
Sullivan Stadium,
Foxboro, MA

SBD + AUD Matrix 2 Source Mix (44/16)

Set 1:
d1t01 - Tuning/Introduction
d1t02 - Touch Of Grey
d1t03 - Hell In A Bucket
d1t04 - West L.A. Fadeaway
d1t05 - Tons Of Steel
d1t06 - Little Red Rooster
d1t07 - Box Of Rain
d1t08 - Althea
d2t01 - Uncle John's Band ->
d2t02 - Playing In The Band ->
d2t03 - Drums ->
d2t04 - Space ->
d2t05 - Truckin' ->
d2t06 - The Other One ->
d2t07 - Wharf Rat ->
d2t08 - Throwing Stones

Set 2:
d3t01 - Tuning
d3t02 - The Times They Are A-Changin'
d3t03 - Man Of Peace
d3t04 - I'll Be Your Baby Tonight *
d3t05 - John Brown
d3t06 - I Want You
d3t07 - Ballad Of A Thin Man
d3t08 - Stuck Inside Of Mobile With The Memphis Blues Again
d3t09 - Queen Jane Approximately
d4t01 - Chimes Of Freedom
d4t02 - Slow Train
d4t03 - Joey
d4t04 - All Along The Watchtower

Encore:
d4t05 - Knockin' On Heaven's Door

Jerry Garcia - Guitar, Pedal Steele *
Bob Weir - Guitar
Brent Mydland - Keyboards
Phil Lesh - Bass
Bill Kreutzmann - Drums
Mickey Hart - Drums
Bob Dylan - Acoustic Guitar (Set 2)

Audio Source Information
Original SBD (shnid = 101650)

Recording Info:
UltramatrixSBD -> Cassette Master -> CD

Transfer Info:
CD -> Samplitude Professional v10.02 -> FLAC
(3 Discs Audio / 2 Discs FLAC)

All Transfers and Mastering By Charlie Miller
[email protected]
July 24, 2008

Patch Info:
Sennheiser ME80 -> Cassette Master -> CD (shnid=3858) supplies:
Space (1:24 - 1:42)

Notes:
-- Set 1 is seamless
-- Set 2 with Bob Dylan

Original AUD (shnid = 139594)

From the Gastwirt Collection
Dan McSheffrey recording: (FOB) AKG 460/CK2 > PCM (Sony PCM-F1) > Dat (44.1k)
Charlie Miller Transfer: Dat (Sony PCM-R500) > Sound Devices 744T > wav 16/44
Edited & Mastered in Audacity by Joe Noel: wav 16/44 > flac 16/44
Checksum & tags created in xACT.

Notes:
- 'Alone & Together' Summer Tour w/ Bob Dylan
* Jerry on pedal steel guitar
- First digital source in circulation (10/24/17).
---------------------------------------------------------
- Mixed by [email protected]
- FLAC conversion 30-AUG-2018 - Trader Little Helper
- Tagged 30-AUG-2018 - Tag&Rename
---------------------------------------------------------
Brokedown House Production

    length     expanded size    cdr  WAVE problems  fmt   ratio  filename
     1:44.61       18489116 B   ---   --   -----    wav  1.0000  gd1987-07-04d1t01.wav
     7:28.08       79046060 B   ---   --   -----    wav  1.0000  gd1987-07-04d1t02.wav
     6:07.72       64908188 B   ---   --   -----    wav  1.0000  gd1987-07-04d1t03.wav
     8:29.50       89905244 B   ---   --   -----    wav  1.0000  gd1987-07-04d1t04.wav
     6:12.65       65773724 B   ---   --   -----    wav  1.0000  gd1987-07-04d1t05.wav
    11:50.26      125305196 B   ---   --   -----    wav  1.0000  gd1987-07-04d1t06.wav
     5:18.14       56128172 B   ---   --   -----    wav  1.0000  gd1987-07-04d1t07.wav
     8:44.33       92511260 B   ---   --   -----    wav  1.0000  gd1987-07-04d1t08.wav
     7:05.71       75137036 B   ---   --   -----    wav  1.0000  gd1987-07-04d2t01.wav
     9:19.38       98697020 B   ---   --   -----    wav  1.0000  gd1987-07-04d2t02.wav
     6:36.34       69934412 B   ---   --   -----    wav  1.0000  gd1987-07-04d2t03.wav
     5:32.36       58649516 B   ---   --   -----    wav  1.0000  gd1987-07-04d2t04.wav
     6:07.42       64837628 B   ---   --   -----    wav  1.0000  gd1987-07-04d2t05.wav
     4:20.42       45962828 B   ---   --   -----    wav  1.0000  gd1987-07-04d2t06.wav
     7:59.53       84620300 B   ---   --   -----    wav  1.0000  gd1987-07-04d2t07.wav
     9:30.60      100689164 B   ---   --   -----    wav  1.0000  gd1987-07-04d2t08.wav
     1:12.07       12717308 B   ---   --   -----    wav  1.0000  gd1987-07-04d3t01.wav
     5:07.70       54319484 B   ---   --   -----    wav  1.0000  gd1987-07-04d3t02.wav
     4:52.72       51678188 B   ---   --   -----    wav  1.0000  gd1987-07-04d3t03.wav
     5:17.06       55932956 B   ---   --   -----    wav  1.0000  gd1987-07-04d3t04.wav
     6:48.64       72121772 B   ---   --   -----    wav  1.0000  gd1987-07-04d3t05.wav
     4:29.41       47548076 B   ---   --   -----    wav  1.0000  gd1987-07-04d3t06.wav
     5:54.55       62575004 B   ---   --   -----    wav  1.0000  gd1987-07-04d3t07.wav
     7:06.55       75275804 B   ---   --   -----    wav  1.0000  gd1987-07-04d3t08.wav
     6:33.58       69461660 B   ---   --   -----    wav  1.0000  gd1987-07-04d3t09.wav
     6:31.36       69057116 B   ---   --   -----    wav  1.0000  gd1987-07-04d4t01.wav
     5:24.00       57153644 B   ---   --   -----    wav  1.0000  gd1987-07-04d4t02.wav
    10:23.09      109918412 B   ---   --   -----    wav  1.0000  gd1987-07-04d4t03.wav
     5:05.64       53952572 B   ---   --   -----    wav  1.0000  gd1987-07-04d4t04.wav
     6:38.54       70334252 B   ---   --   -----    wav  1.0000  gd1987-07-04d4t05.wav
   193:56.21     2052641112 B                            1.0000  (30 files)


Show Checksums
ffp
gd1987-07-04d1t01.flac:48be6ec7b2a89a1082b5c6a893fd25fb
gd1987-07-04d1t02.flac:2b98c50e251895589a90bc216117ad6a
gd1987-07-04d1t03.flac:d19cea112865cac6fc6b62b77fc29a9b
gd1987-07-04d1t04.flac:39455ae2bf613d41098225da1d971567
gd1987-07-04d1t05.flac:3eb91d0b12421ef4fcfe68b8ed419e9a
gd1987-07-04d1t06.flac:c5f7ad2589eec7526cb1d0a0c76b4431
gd1987-07-04d1t07.flac:461203480596347092039d010cbb293b
gd1987-07-04d1t08.flac:6e473d6276dec0c9b17bf17401973542
gd1987-07-04d2t01.flac:d3cf1f06928c043962ce068a64e0c8e3
gd1987-07-04d2t02.flac:ee4c16ad74fcc9f242f0f9cccc9be8ac
gd1987-07-04d2t03.flac:656490c6cc9fcaff1999b9172acf92d4
gd1987-07-04d2t04.flac:9fb5fd5aa64595491474a42a0b01d414
gd1987-07-04d2t05.flac:958855137c285a97c0e5ee15e984ef14
gd1987-07-04d2t06.flac:4195cec01f0b48a9c9738617e279bb08
gd1987-07-04d2t07.flac:a72c070f99f16f5b03bfa6cc9b9c9ec3
gd1987-07-04d2t08.flac:618ae90f4cbda4b1c17ec0fc91b980a0
gd1987-07-04d3t01.flac:988ebc46af3422e6ada8c5975acd9249
gd1987-07-04d3t02.flac:ad352cbda0389b0b362932ecaa19ee08
gd1987-07-04d3t03.flac:ae0e698a7829d262a20971b3e2aa6835
gd1987-07-04d3t04.flac:c074a2dc9f870ef223495042592bd558
gd1987-07-04d3t05.flac:79537f8c4acd33270229b69f63f7693f
gd1987-07-04d3t06.flac:85ff2d68888b2b33d1719a732611e38d
gd1987-07-04d3t07.flac:9346e32341fc5b81b0bcf975afbeef08
gd1987-07-04d3t08.flac:c7415314568de56b77619382c2b40bb7
gd1987-07-04d3t09.flac:240f52d30f198ea3c3411b2dbd472385
gd1987-07-04d4t01.flac:d85f31e3710ca1a0d4fe7159a500ab38
gd1987-07-04d4t02.flac:9b7d9060f14c2909ee61f465a7e01253
gd1987-07-04d4t03.flac:758abec8ba0a0761e5377952251eeef9
gd1987-07-04d4t04.flac:c92063296d956e5df0bc709a62b47b6a
gd1987-07-04d4t05.flac:9d7b3dc27bce1204394d1eb1dff31309
flac-md5
da4863440fcf69a2a92128a5b0c09264 *gd1987-07-04d1t01.flac
a8439631f6e3260c237090246e691ef6 *gd1987-07-04d1t02.flac
0849353d0422630fff8b983b089d5bfd *gd1987-07-04d1t03.flac
e4be1bce44cdec1dd6b75f5bb8a2ad94 *gd1987-07-04d1t04.flac
451bd787e9d4db6881cf2fab31d4f105 *gd1987-07-04d1t05.flac
a3b0b37861aa784e48d8f8d1621e5f8f *gd1987-07-04d1t06.flac
87472554c1113f97d218198c6feca890 *gd1987-07-04d1t07.flac
aa06a6eb4de8d6fc47b104bbc63bbc90 *gd1987-07-04d1t08.flac
aeb159d62c4c211a8bc45bdaa8ed839b *gd1987-07-04d2t01.flac
ce79da0d6b0d0fdb7fa7968b7a3bc7ba *gd1987-07-04d2t02.flac
73571bb697d498af338f9757e97009e3 *gd1987-07-04d2t03.flac
3678b484b69cadaef720f9592d21c581 *gd1987-07-04d2t04.flac
95b177b185bb0162a0c3a71c9f2da65f *gd1987-07-04d2t05.flac
75b7169c621a684a31d35de50c60337f *gd1987-07-04d2t06.flac
e12acce105704d84b261eccfaeae3a69 *gd1987-07-04d2t07.flac
6114507d51690b9124032611fccbc470 *gd1987-07-04d2t08.flac
e1f87cf840e02cd5d54b49948c968bbf *gd1987-07-04d3t01.flac
7e9f5885563408bbea39ee66bb081f1b *gd1987-07-04d3t02.flac
8b50ea480f8174de57bbdd5f6eaaeea9 *gd1987-07-04d3t03.flac
cda78c6fc5666136396842393860f094 *gd1987-07-04d3t04.flac
38af600cbe4f4a43bf94250770b55fac *gd1987-07-04d3t05.flac
c4f4baa9700c0440797fce2ea0917653 *gd1987-07-04d3t06.flac
55c68d327096a4d3bdc0e411c4187754 *gd1987-07-04d3t07.flac
6633035b6bed4c0680eb3f193872e3c1 *gd1987-07-04d3t08.flac
2ae6c8a3c406a1fd70af63aff5b440c9 *gd1987-07-04d3t09.flac
86193a839f1cbb7e9f7c139543d4b8ed *gd1987-07-04d4t01.flac
f7f9102c1488a6113d9410213b27a3d3 *gd1987-07-04d4t02.flac
d95600fc9d306aace2cd196f5798d404 *gd1987-07-04d4t03.flac
b2ef0eb8600464604faa1366a00b7959 *gd1987-07-04d4t04.flac
efab44016d88b0c761c345f4d790b402 *gd1987-07-04d4t05.flac

Comments
Add Comment
Other Sources (comments)
FOB> aud> senn me80>... (1) FOB> aud> senn me80>... (0) flac16; AUD Source:... (0) Soundboard > ? > SHN (0) flac16; Recording... (0) flac16; Master:... (0) flac24; source:... (0) flac16; Dan... (0) DTS-Audio-CD 5.1... (0) flac16/48kHz; 5.1... (0)
Date User Comment